.
Авторизация | Регистрация

bitok.xyz

» » Мёртвый космос / Dead Space animated comics (2008 / 2019) WEB-DL [H.264 / 720p-LQ] [Uncut, Remastered, Uncensored] [PR] торрент скачать бесплатно


    Мёртвый космос / Dead Space animated comics (2008 / 2019) WEB-DL [H.264 / 720p-LQ] [Uncut, Remastered, Uncensored] [PR] торрент скачать бесплатно

    Дата: 10-09-2019, 05:00 | .torrent скачали: 0

    Мёртвый космос / Dead Space animated comics (2008 / 2019) WEB-DL [H.264 / 720p-LQ] [Uncut, Remastered, Uncensored] [PR]Жанр: Анимированный комикс, Ужасы, Фантастика
    Производство: Никита Brandon Heat Хромов

    Описание

    Вашему вниманию предлагается отреставрированный анимированный комикс по графической новелле Dead Space.
    Да, таких фильмов сейчас много и делают их все, кому не лень. Отличия моего от остальных описаны в спойлере Пройденный путь.
    Судить, что из всего этого у меня вышло, вам. Надеюсь, приятного просмотра!
    Релиз от: Никита Brandon Heat Хромов
    Продолжительность: 00: 46: 16
    Качество видео: WEB-DL
    Перевод: Многоголосый профессиональный (Журнал Мир Фантастики)
    Субтитры: английские, русские (по умолчанию), язык Обелиска
    Видео: AVC/H.264, 1280x720, ~3000 Kbps
    Аудио 1: AC3, 2 ch, 192Kbps - Английский
    Аудио 2: AC3, 2 ch, 192Kbps - Русский

    Format : Matroska
    Format version : Version 4
    File size : 909 MiB
    Duration : 46 min 16 s
    Overall bit rate : 2 747 kb/s
    Movie name : Dead Space animated comics by Никита Brandon Heat Хромов
    Encoded date : UTC 2019-09-04 17: 55: 10
    Writing application : mkvmerge v8.3.0 (\'Over the Horizon\') 64bit
    Writing library : libebml v1.3.1 + libmatroska v1.4.2
    Attachments : DeadSpace Unitology.ttf/arial.ttf/arialbd.ttf/ariali.ttf
    Video
    ID : 1
    Format : AVC
    Format/Info : Advanced Video Codec
    Format profile : High@L5
    Format settings : CABAC/16 Ref Frames
    Format settings, CABAC : Yes
    Format settings, ReFrames : 16 frames
    Codec ID : V_MPEG4/ISO/AVC
    Duration : 46 min 16 s
    Bit rate : 2 355 kb/s
    Nominal bit rate : 3 000 kb/s
    Width : 1 280 pixels
    Height : 720 pixels
    Display aspect ratio : 16: 9
    Frame rate mode : Constant
    Frame rate : 29.970 (30000/1001) FPS
    Color space : YUV
    Chroma subsampling : 4: 2: 0
    Bit depth : 8 bits
    Scan type : Progressive
    Bits/(Pixel*Frame) : 0.085
    Stream size : 779 MiB (86%)
    Title : Dead Space animated comics
    Writing library : x264 core 157 r2958 57baac4
    Encoding settings : cabac=1/ref=16/deblock=1: -2: -2/analyse=0x3: 0x133/me=tesa/subme=11/psy=1/psy_rd=1.00: 0.00/mixed_ref=1/me_range=24/chroma_me=1/trellis=2/8x8dct=1/cqm=0/deadzone=21, 11/fast_pskip=0/chroma_qp_offset=-2/threads=5/lookahead_threads=1/sliced_threads=0/nr=0/decimate=1/interlaced=0/bluray_compat=0/constrained_intra=0/bframes=16/b_pyramid=2/b_adapt=2/b_bias=0/direct=3/weightb=1/open_gop=0/weightp=2/keyint=300/keyint_min=30/scenecut=40/intra_refresh=0/rc_lookahead=60/rc=cbr/mbtree=1/bitrate=3000/ratetol=1.0/qcomp=0.60/qpmin=0/qpmax=69/qpstep=4/vbv_maxrate=3000/vbv_bufsize=2142/nal_hrd=none/filler=0/ip_ratio=1.40/aq=1: 1.00
    Language : English
    Default : Yes
    Forced : Yes
    Color range : Limited
    Color primaries : BT.709
    Transfer characteristics : BT.709
    Matrix coefficients : BT.709
    Audio #1
    ID : 2
    Format : AC-3
    Format/Info : Audio Coding 3
    Commercial name : Dolby Digital
    Codec ID : A_AC3
    Duration : 46 min 0 s
    Bit rate mode : Constant
    Bit rate : 192 kb/s
    Channel(s) : 2 channels
    Channel layout : L R
    Sampling rate : 48.0 kHz
    Frame rate : 31.250 FPS (1536 SPF)
    Bit depth : 16 bits
    Compression mode : Lossy
    Stream size : 63.2 MiB (7%)
    Title : AC3 2.0 Original
    Language : English
    Service kind : Complete Main
    Default : No
    Forced : No
    Audio #2
    ID : 3
    Format : AC-3
    Format/Info : Audio Coding 3
    Commercial name : Dolby Digital
    Codec ID : A_AC3
    Duration : 46 min 16 s
    Bit rate mode : Constant
    Bit rate : 192 kb/s
    Channel(s) : 2 channels
    Channel layout : L R
    Sampling rate : 48.0 kHz
    Frame rate : 31.250 FPS (1536 SPF)
    Bit depth : 16 bits
    Compression mode : Lossy
    Stream size : 63.5 MiB (7%)
    Title : AC3 2.0 Журнал Мир Фантастики
    Language : Russian
    Service kind : Complete Main
    Default : Yes
    Forced : No
    Text #1
    ID : 4
    Format : ASS
    Codec ID : S_TEXT/ASS
    Codec ID/Info : Advanced Sub Station Alpha
    Duration : 44 min 57 s
    Bit rate : 202 b/s
    Count of elements : 891
    Compression mode : Lossless
    Stream size : 66.8 KiB (0%)
    Title : Full/Полные
    Language : English
    Default : No
    Forced : No
    Text #2
    ID : 5
    Format : ASS
    Codec ID : S_TEXT/ASS
    Codec ID/Info : Advanced Sub Station Alpha
    Duration : 44 min 24 s
    Bit rate : 11 b/s
    Count of elements : 37
    Compression mode : Lossless
    Stream size : 3.81 KiB (0%)
    Title : Для дополнительной сцены/For additional scene
    Language : Russian
    Default : Yes
    Forced : No
    Text #3
    ID : 6
    Format : ASS
    Codec ID : S_TEXT/ASS
    Codec ID/Info : Advanced Sub Station Alpha
    Duration : 45 min 1 s
    Bit rate : 289 b/s
    Count of elements : 895
    Compression mode : Lossless
    Stream size : 95.4 KiB (0%)
    Title : Полные/Full
    Language : Russian
    Default : No
    Forced : No
    Text #4
    ID : 7
    Format : ASS
    Codec ID : S_TEXT/ASS
    Codec ID/Info : Advanced Sub Station Alpha
    Duration : 45 min 1 s
    Bit rate : 202 b/s
    Count of elements : 893
    Compression mode : Lossless
    Stream size : 66.9 KiB (0%)
    Title : Полные Язык Обелиска/Full Marker language
    Default : No
    Forced : No
    1. Добавлена сцена, которую принято называть issue 0, хотя на самом деле это альтернативное развитие сюжета комикса. Добавил эту сцену в максимально логичное место, а не в самое начало, как делают другие авторы. Также добавил к ней эффект обозначения локации, чтобы максимально приблизиться к общей концепции фильма.
    2. Постарался сделать цвета максимально близкими к комиксу.
    Версия, к которой мы все привыкли и которая гуляет по Сети

    HD-источник

    Комикс

    Мой результат
    3. Вряд ли кто-то когда-то замечал, но очень многие сцены во всех версиях этого видеокомикса отзеркалены. Не представляю, для чего это было сделано, но с моей точки зрения это грубая ошибка. Также кое-где использовались изображения из других сцен, что также очень странно, но также было мной исправлено.
    Некоторые примеры отзеркаленных сцен
    Источник

    Комикс

    Мой результат

    Неправильное изображение в сцене
    В моменте, когда доктор и Брэм приехали к раскопкам, и охрана их выгоняет нам показывают вот эти кадры:

    Оба эти кадра сделаны вот из этого, и относится он к другой сцене, которая будет гораздо позже, когда Наталью попытаются арестовать:

    Основываясь на комиксе, заменил неправильные кадры на тот, что в комиксе и добавил ему анимации:
    4. Переработан звук. Если раньше в русской озвучке почти полностью проглатывались эффекты, музыка и закадровая английская речь, то теперь это сделано чётче. При просмотре с русской озвучкой зрители с чуткими ушами могут заметить появляющийся время от времени лёгкий рассинхрон в фоновой английской речи, он заметен только если знать, что и где искать, увы, издержки моей непрофессиональной работы и достаточного бедного источника исходного материала.
    5. Для большинства сцен использовал материалы от EA. Около половины фильма выполнено в реальном HD, другие авторы делают (делали) это банальным апскейлом всего и вся. Не стану отнекиваться, у меня также есть места с апскейлом (поскольку не все сцены существует в TrueHD) , в данной ситуации без этого никуда. Также поработал над картинкой, чтобы, по-возможности, сгладить артефакты видеоряда.
    6. Для русских субтитров за основу взял официальное российское издание комикса и озвучку, но перевод был мной переработан и откорректирован. Выправлен русский язык, исправлены логические огрехи и заново переведены некоторые места.
    Русскую озвучку постоянно незаслуженно приписывают Игромании, хотя на самом деле она была выполненастарымколлективом журнала Мир Фантастики. В те годы журналы Игромания и Мир Фантастики принадлежали ООО Игромедиа, только и всего. А сама Игромания лишь косвенно, с большой натяжкой, относится к озвучке - как бывший партнёр МФ. Сейчас Игромания и МФ это два отдельных издания.


    Мёртвый космос/Dead Space animated comics (2008/2019) WEB-DL [H.264/720p-LQ] [Uncut, Remastered, Uncensored] [PR]
    Рейтинг →
     (голосов: 1, оценка 5/5, голосовать можно 1 раз )

    Другие торренты по теме:

  • Мёртвый космос / Dead Space v1.0.0.223 (2015) HDRip скачать через торрент бесплатно
  • Брайан Эвенсон | Мёртвый космос: Мученик (2010) [FB2]
  • Мёртвый космос 2 / Dead Space 2 (2016) HDRip [H.264 / 1080p-LQ]
  • Мёртвый космос / Dead Space v1.0.0.223 (2015) HDRip [H.264 / 1080p-LQ]
  • Мёртвый космос Энзим / Dead Space Ignition (2017) HDRip [H.264 / 1080p-LQ]
  • Мёртвый космос 3 / Dead Space 3 (2019) HDRip [H.264 / 1080p-LQ] [EN / RU, EN Sub]


    • Комментарии (0):

      Информация

      Информация

        Посетители, находящиеся в группе Гости, не могут оставлять комментарии в данной новости.

        ↓ Меню




        ↓ Опрос

        Вы добавили сайт в закладки?
        Да
        Нет


        Популярное