.
Авторизация | Регистрация

bitok.xyz

» » Бэтмен против Супермена: На заре справедливости / Batman v Superman: Dawn of Justice (2016) BDRip [H.264 / 720p] [hand made 60 fps] торрент скачать бесплатно


    Бэтмен против Супермена: На заре справедливости / Batman v Superman: Dawn of Justice (2016) BDRip [H.264 / 720p] [hand made 60 fps] торрент скачать бесплатно

    Дата: 19-09-2019, 05:00 | .torrent скачали: 0

    Бэтмен против Супермена: На заре справедливости / Batman v Superman: Dawn of Justice (2016) BDRip [H.264 / 720p] [hand made 60 fps]Производство: США/DC Entertainment, Dune Entertainment, Syncopy
    Жанр: Фантастика, боевик
    Режиссер: Зак Снайдер

    Актеры
    Генри Кавилл, Бен Аффлек, Галь Гадот, Джейсон Момоа, Эми Адамс, Джесси Айзенберг, Джена Мэлоун, Эзра Миллер, Дайан Лэйн, Джереми Айронс

    Описание

    Опасаясь, что действия богоподобного супергероя так и останутся бесконтрольными, грозный и могущественный страж Готэм Сити бросает вызов самому почитаемому в наши дни спасителю Метрополиса, в то время как весь остальной мир решает, какой герой ему по-настоящему нужен. И пока Бэтмен и Супермен пребывают в состоянии войны друг с другом, возникает новая угроза, которая ставит человечество под самую большую опасность, с которой оно когда-либо

    Возраст: 16+ (зрителям, достигшим 16 лет)
    Рейтинг MPAA: PG-13 (детям до 13 лет просмотр нежелателен)
    Продолжительность: 02: 31: 40
    Качество видео: BDRip
    Перевод: Дублированный (Лицензия)
    Субтитры: Русские (forced, full), английские (full)
    Видео: AVC/H.264, 1280x534, 5470 kbps
    Аудио: AC3, 6 ch, 448 kbps

    Общее
    Уникальный идентификатор : 224655025105509569962882512360585551820 (0xA902FBE77993378290F182224EFFDFCC)
    Полное имя : D: ЗагрузкиБэтмен против Супермена На заре справедливости (2016) BDRip 720p_60fps.mkv
    Формат : Matroska
    Версия формата : Version 4
    Размер файла : 6, 27 Гбайт
    Продолжительность : 2 ч. 31 м.
    Общий поток : 5922 Кбит/сек
    Название фильма : Batman v Superman: Dawn of Justice.(2016).BDRip.720p.envy.60fps
    Дата кодирования : UTC 2010-02-22 21: 41: 31
    Программа кодирования : mkvmerge v5.8.0 (\'No Sleep/Pillow\') built on Nov 13 2012 19: 43: 22
    Библиотека кодирования : libebml v1.3.0 + libmatroska v1.4.0
    Видео
    Идентификатор : 1
    Формат : AVC
    Формат/Информация : Advanced Video Codec
    Профиль формата : High@L4.1
    Настройки формата : CABAC/9 Ref Frames
    Параметр CABAC формата : Да
    Параметр RefFrames формата : 9 кадров
    Идентификатор кодека : V_MPEG4/ISO/AVC
    Продолжительность : 2 ч. 31 м.
    Битрейт : 5356 Кбит/сек
    Ширина : 1280 пикселей
    Высота : 534 пикселя
    Соотношение сторон : 2, 40: 1
    Режим частоты кадров : Постоянный
    Частота кадров : 59, 940 (60000/1001) кадров/сек
    Цветовое пространство : YUV
    Субдискретизация насыщенности : 4: 2: 0
    Битовая глубина : 8 бит
    Тип развёртки : Прогрессивная
    Бит/(Пиксели*Кадры) : 0.131
    Размер потока : 5, 67 Гбайт (90%)
    Заголовок : Batman v Superman: Dawn of Justice.(2016).BDRip.720p.envy.60fps
    Библиотека кодирования : x264 core 146 r2538 121396c
    Настройки программы : cabac=1/ref=9/deblock=1: 0: 0/analyse=0x3: 0x113/me=umh/subme=9/psy=1/psy_rd=1.00: 0.00/mixed_ref=1/me_range=24/chroma_me=1/trellis=2/8x8dct=1/cqm=0/deadzone=21, 11/fast_pskip=0/chroma_qp_offset=-2/threads=12/lookahead_threads=1/sliced_threads=0/nr=0/decimate=1/interlaced=0/bluray_compat=0/constrained_intra=0/bframes=6/b_pyramid=2/b_adapt=2/b_bias=0/direct=3/weightb=1/open_gop=0/weightp=2/keyint=250/keyint_min=25/scenecut=40/intra_refresh=0/rc_lookahead=40/rc=crf/mbtree=0/crf=17.5/qcomp=0.60/qpmin=0/qpmax=69/qpstep=4/vbv_maxrate=14000/vbv_bufsize=14000/crf_max=0.0/nal_hrd=none/filler=0/ip_ratio=1.40/pb_ratio=1.30/aq=3: 1.00
    Язык : English
    Default : Да
    Forced : Нет
    Аудио
    Идентификатор : 2
    Формат : AC-3
    Формат/Информация : Audio Coding 3
    Коммерческое название : Dolby Digital
    Идентификатор кодека : A_AC3
    Продолжительность : 2 ч. 31 м.
    Вид битрейта : Постоянный
    Битрейт : 448 Кбит/сек
    Каналы : 6 каналов
    ChannelLayout : L R C LFE Ls Rs
    Частота : 48, 0 КГц
    Частота кадров : 31, 250 кадров/сек (1536 SPF)
    Битовая глубина : 16 бит
    Метод сжатия : С потерями
    Размер потока : 486 Мбайт (8%)
    Заголовок : Dub
    Язык : Russian
    ServiceKind/String : Complete Main
    Default : Да
    Forced : Нет
    Текст #1
    Идентификатор : 3
    Формат : UTF-8
    Идентификатор кодека : S_TEXT/UTF8
    Идентификатор кодека/Информация : UTF-8 Plain Text
    Заголовок : Rus forced
    Язык : Russian
    Default : Да
    Forced : Да
    Текст #2
    Идентификатор : 4
    Формат : UTF-8
    Идентификатор кодека : S_TEXT/UTF8
    Идентификатор кодека/Информация : UTF-8 Plain Text
    Заголовок : Rus full
    Язык : Russian
    Default : Нет
    Forced : Нет
    Текст #3
    Идентификатор : 5
    Формат : UTF-8
    Идентификатор кодека : S_TEXT/UTF8
    Идентификатор кодека/Информация : UTF-8 Plain Text
    Заголовок : Eng full
    Язык : English
    Default : Нет
    Forced : Нет
    Меню
    00: 00: 00.000 : en: 00: 00: 00.000
    00: 09: 50.048 : en: 00: 09: 50.048
    00: 20: 45.786 : en: 00: 20: 45.786
    00: 29: 58.672 : en: 00: 29: 58.672
    00: 38: 46.616 : en: 00: 38: 46.616
    00: 49: 25.921 : en: 00: 49: 25.921
    00: 59: 21.558 : en: 00: 59: 21.558
    01: 10: 06.202 : en: 01: 10: 06.202
    01: 21: 15.120 : en: 01: 21: 15.120
    01: 30: 00.312 : en: 01: 30: 00.312
    01: 38: 20.812 : en: 01: 38: 20.812
    01: 49: 57.382 : en: 01: 49: 57.382
    02: 01: 49.052 : en: 02: 01: 49.052
    02: 10: 40.416 : en: 02: 10: 40.416
    02: 18: 41.313 : en: 02: 18: 41.313
    02: 23: 50.372 : en: 02: 23: 50.372

    File: D: ЗагрузкиБэтмен против Супермена На заре справедливости (2016) BDRip 720p_60fps.mkv
    Duration: 02: 31: 40 (9100.32)
    Track #1: video (Batman v Superman: Dawn of Justice.(2016).BDRip.720p.envy.60fps)
    lang: Unknown (1)
    codc: V_MPEG4/ISO/AVC - H264/AVC (22)
    reso: 1280x534 - Unknown (aka not common)
    fram: 59.9401 fps
    rate: 5470 kbps (5469.72)
    dura: 02: 31: 40 (9100.21)
    size: 5.79 GB (6221947832)
    Track #2: audio (Dub)
    lang: rus - Russian (15)
    codc: A_AC3 - AC3 (2)
    chan: 6 - 5.1 Surround
    samp: 48000 Hz
    rate: 448 kbps (448.05)
    dura: 02: 31: 40 (9100.06)
    size: 486.05 MB (509655246)
    Track #3: subtitles (Rus forced)
    lang: rus - Russian (15)
    type: S_TEXT/UTF8 - SRT (3)
    size: 4.72 KB (4833)
    Track #4: subtitles (Rus full)
    lang: rus - Russian (15)
    type: S_TEXT/UTF8 - SRT (3)
    size: 63.84 KB (65376)
    Track #5: subtitles (Eng full)
    lang: Unknown (1)
    type: S_TEXT/UTF8 - SRT (3)
    size: 36.70 KB (37582)
    Sizes: (check sanity)
    disk: 6.27 GB (6736168621)
    trac: 2.27 GB (2436743573) based on track size
    bitr: 6.27 GB (6731611155) based on bitrate
    tdif: 4.00 GB (4299425048) 63.82%
    bdif: 4.35 MB (4557465) 0.06%


    Скриншоты для ознакомления



    Все одноименные релизы в Клубе
    Время раздачи: 24/7 (до появления первых 3-5 скачавших)
    Бэтмен: Коллекция/Batman: Collection (1989-2012) ВDRip H.264 hand made 60 fps


    Бэтмен против Супермена: На заре справедливости/Batman v Superman: Dawn of Justice (2016) BDRip [H.264/720p] [hand made 60 fps]
    Рейтинг →
     (голосов: 1, оценка 5/5, голосовать можно 1 раз )

    Другие торренты по теме:

  • Бэтмен против Робина / Batman vs. Robin (2015) BDRip [720p] скачать через торрент бесплатно
  • Бэтмен против Робина / Batman vs. Robin (2015) BDRip [1080p] скачать через торрент бесплатно
  • Бэтмен против Супермена: На заре справедливости / Batman v Superman: Dawn of Justice (2016) WEBRip [1080р] [Трейлер] [EN] скачать через торрент бесплатно
  • Бэтмен против Супермена: На заре справедливости / Batman v Superman: Dawn of Justice (2016) WEBRip [1080р] [Трейлер] скачать через торрент бесплатно
  • Бэтмен против Супермена: На заре справедливости / Batman v Superman: Dawn of Justice (2016) DCPRip [2K] [Hi10P, Hi444PP] [Трейлер F1] скачать через торрент бесплатно
  • Бэтмен против Супермена: На заре справедливости / Batman v Superman: Dawn of Justice (2016) WEBRip [H.264 / 1080p] [Трейлер] [EN] скачать через торрент бесплатно
  • Бэтмен против Супермена: На заре справедливости / Batman v Superman: Dawn of Justice (2016) WEBRip [H.264 / 1080p] [Трейлер] скачать через торрент бесплатно
  • Бэтмен против Супермена: На заре справедливости / Batman v Superman: Dawn of Justice (2016) DCPRip [2K] [Hi10P, Hi444PP] [Трейлер F3] скачать через торрент бесплатно


    • Комментарии (0):

      Информация

      Информация

        Посетители, находящиеся в группе Гости, не могут оставлять комментарии в данной новости.

        ↓ Меню




        ↓ Опрос

        Вы добавили сайт в закладки?
        Да
        Нет


        Популярное