.
Авторизация | Регистрация
bitok.xyz
» » Анна / Anna (2019) BDRip [H.264 / 1080p-LQ] [hand made 16:9] торрент скачать бесплатно


    Анна / Anna (2019) BDRip [H.264 / 1080p-LQ] [hand made 16:9] торрент скачать бесплатно

    Дата: 22-09-2019, 05:00 | .torrent скачали: 18

    Анна / Anna (2019) BDRip [H.264 / 1080p-LQ] [hand made 16:9]Производство: Франция, США/Summit Entertainment, EuropaCorp, Canal+
    Жанр: Боевик, триллер
    Режиссер: Люк Бессон

    Актеры
    Саша Лусс, Хелен Миррен, Люк Эванс, Киллиан Мёрфи, Лера Абова, Александр Петров, Никита Павленко, Анна Криппа, Алексей Маслодудов, Эрик Годон

    Описание

    Действие фильма разворачивается в конце 1980-х годов. Анна (Саша Лусс) – молодая симпатичная девушка – оказывается на пороге самых значительных событий в своей жизни. Из-за своей поразительной красоты она кажется слабой и беззащитной, но под этой маской скрывается неуемная мощь одного из самых опасных наемных убийц в мире. Анна оказывается втянутой в цепочку криминальных событий, и все происходящее с ней грозит смертельной опасностью.

    Возраст: 18+ (зрителям, достигшим 18 лет. запрещено для детей)
    Рейтинг MPAA: R (лицам до 17 лет обязательно присутствие взрослого)
    Дата мировой премьеры: 19 июня 2019
    Дата российской премьеры: 11 июля 2019, Централ Партнершип
    Продолжительность: 01: 58: 59
    Качество видео: BDRip 1080р
    Перевод: Дублированный (iTunes)
    Субтитры: Английские
    Видео: AVC/H.264, 1920х1080, ~6 Мbps
    Аудио #1: AC3, 6 ch, 384 Kbps - Русский
    Аудио #2: AC3, 6 ch, 640 Kbps - Английский
    x264 info: frame I: 1621 Avg QP: 16.71 size: 147407
    x264 info: frame P: 40997 Avg QP: 18.69 size: 63034
    x264 info: frame B: 128551 Avg QP: 20.79 size: 19652
    Unique ID : 235377767099597647033549969431175442566 (0xB1141BE6C4F910DDACB4027CCDCD3086)
    Complete name : D: TempNNMAnna.2019.1080p.FS.mkv
    Format : Matroska
    Format version : Version 4/Version 2
    File size : 5.84 GiB
    Duration : 1h 59mn
    Overall bit rate : 7 020 Kbps
    Encoded date : UTC 2019-09-21 02: 07: 29
    Writing application : mkvmerge v9.8.0 (\'Kuglblids\') 64bit
    Writing library : Lavf57.71.100
    Video
    ID : 1
    Format : AVC
    Format/Info : Advanced Video Codec
    Format profile : High@L4.1
    Format settings, CABAC : Yes
    Format settings, ReFrames : 4 frames
    Codec ID : V_MPEG4/ISO/AVC
    Duration : 1h 59mn
    Bit rate : 6 000 Kbps
    Width : 1 920 pixels
    Height : 1 080 pixels
    Display aspect ratio : 16: 9
    Frame rate mode : Constant
    Frame rate : 23.976 fps
    Color space : YUV
    Chroma subsampling : 4: 2: 0
    Bit depth : 8 bits
    Scan type : Progressive
    Bits/(Pixel*Frame) : 0.121
    Stream size : 4.87 GiB (83%)
    Writing library : x264 core 157 r2935 545de2f
    Encoding settings : cabac=1/ref=4/deblock=1: -3: -3/analyse=0x3: 0x113/me=umh/subme=10/psy=1/psy_rd=1.05: 0.10/mixed_ref=1/me_range=24/chroma_me=1/trellis=2/8x8dct=1/cqm=0/deadzone=21, 11/fast_pskip=0/chroma_qp_offset=-3/threads=5/lookahead_threads=1/sliced_threads=0/nr=0/decimate=0/interlaced=0/bluray_compat=0/constrained_intra=0/bframes=6/b_pyramid=2/b_adapt=2/b_bias=0/direct=1/weightb=1/open_gop=0/weightp=2/keyint=240/keyint_min=24/scenecut=40/intra_refresh=0/rc=2pass/mbtree=0/bitrate=6000/ratetol=1.0/qcomp=0.70/qpmin=3/qpmax=69/qpstep=4/cplxblur=20.0/qblur=0.5/ip_ratio=1.40/pb_ratio=1.30/aq=2: 1.00
    Default : Yes
    Forced : No
    Audio #1
    ID : 2
    Format : AC-3
    Format/Info : Audio Coding 3
    Mode extension : CM (complete main)
    Format settings, Endianness : Big
    Codec ID : A_AC3
    Duration : 1h 59mn
    Bit rate mode : Constant
    Bit rate : 384 Kbps
    Channel(s) : 6 channels
    Channel positions : Front: L C R, Side: L R, LFE
    Sampling rate : 48.0 KHz
    Bit depth : 16 bits
    Compression mode : Lossy
    Stream size : 327 MiB (5%)
    Language : Russian
    Default : Yes
    Forced : No
    Audio #2
    ID : 3
    Format : AC-3
    Format/Info : Audio Coding 3
    Mode extension : CM (complete main)
    Format settings, Endianness : Big
    Codec ID : A_AC3
    Duration : 1h 59mn
    Bit rate mode : Constant
    Bit rate : 640 Kbps
    Channel(s) : 6 channels
    Channel positions : Front: L C R, Side: L R, LFE
    Sampling rate : 48.0 KHz
    Bit depth : 16 bits
    Compression mode : Lossy
    Stream size : 545 MiB (9%)
    Language : English
    Default : No
    Forced : No
    Text
    ID : 4
    Format : UTF-8
    Codec ID : S_TEXT/UTF8
    Codec ID/Info : UTF-8 Plain Text
    Language : English
    Default : Yes
    Forced : No

    Скриншоты для ознакомления



    Все одноименные релизы в Клубе
    Время раздачи: 24/7 (до появления первых 3-5 скачавших)

    Анна/Anna (2019) BDRip [H.264/1080p-LQ] [hand made 16:9]
    Рейтинг →
     (голосов: 1, оценка 5/5, голосовать можно 1 раз )

    Другие торренты по теме:

  • Анна / Anna (2019) TS [H.264 / 720p-LQ] [MVO] [AD]
  • Анна / Anna (2019) WEBRip [H.264 / 1080p-LQ] [Трейлер]
  • Анна / Anna (2019) WEB-DLRip [Line] [AD]
  • Анна / Anna (2019) WEB-DLRip [H.264 / 1080p-LQ] [Line] [AD]
  • Анна / Anna (2019) HDRip [MVO]
  • Анна / Anna (2019) WEB-DL [H.265 / 2160p] [MVO]
  • Анна / Anna (2019) BDRip [H.264 / 1080p] [MVO]
  • Анна / Anna (2019) WEB-DLRip [H.264] [MVO]


    • Комментарии (0):

      Информация

      Информация

        Посетители, находящиеся в группе Гости, не могут оставлять комментарии в данной новости.

        ↓ Меню




        ↓ Опрос

        Вы добавили сайт в закладки?
        Да
        Нет


        Популярное