.
Авторизация | Регистрация

bitok.xyz

» » Люди Икс: Тёмный Феникс / Dark Phoenix (2019) BDRip [H.264 / 1080p-LQ] [hand made 16:9] торрент скачать бесплатно


    Люди Икс: Тёмный Феникс / Dark Phoenix (2019) BDRip [H.264 / 1080p-LQ] [hand made 16:9] торрент скачать бесплатно

    Дата: 23-09-2019, 05:00 | .torrent скачали: 0

    Люди Икс: Тёмный Феникс / Dark Phoenix (2019) BDRip [H.264 / 1080p-LQ] [hand made 16:9]Производство: США, 20th Century Fox Film Corporation, Bad Hat Harry Productions, Donners\' Company, Kinberg Genre, Marvel Entertainment, TSG Entertainment
    Жанр: фантастика, боевик, приключения
    Режиссер: Саймон Кинберг
    Продюсер: Саймон Кинберг, Хатч Паркер, Лорен Шулер Доннер

    Актеры
    Джеймс МакЭвой, Майкл Фассбендер, Дженнифер Лоуренс, Николас Холт, Софи Тёрнер, Тай Шеридан, Александра Шипп, Эван Питерс, Коди Смит-Макфи, Джессика Честейн

    Описание

    История Джин Грей, которая разворачивается в тот момент, когда героиня превращается в культового Тёмного Феникса. Во время опасной для жизни спасательной миссии в космосе девушка оказывается поражена таинственной космической силой, которая превращает её в одного из самых могущественных мутантов. В борьбе с этой всё более изменчивой мощью и со своими собственными демонами Джин выходит из-под контроля: раскалывает семью Людей Икс и угрожает уничтожить всю нашу планету.

    Возраст: 16+ (зрителям, достигшим 16 лет)
    Рейтинг MPAA: PG-13 (детям до 13 лет просмотр нежелателен)
    Дата мировой премьеры: 5 июня 2019
    Дата российской премьеры: 6 июня 2019, Двадцатый Век Фокс СНГ
    Продолжительность: 01: 53: 56
    Качество видео: BDRip
    Перевод: Дублированный
    Субтитры: Русские (forced, full), Английские (forced, full)
    Видео: AVC/H.264, 1920x1080, ~5000 Kbps
    Аудио #1: AC3, 6 ch, 640 Kbps - русский
    Аудио #2: AC3, 6 ch, 640 Kbps - английский

    x264 info: frame I: 1249 Avg QP: 16.83 size: 147873
    x264 info: frame P: 43368 Avg QP: 18.50 size: 51154
    x264 info: frame B: 119293 Avg QP: 19.49 size: 15616
    Unique ID : 277768948022151254469127633113298377530 (0xD0F85A7C76F52E011D59BA435FAE1B3A)
    Complete name : D: TempNNMТемный Феникс.1080p.FS.mkv
    Format : Matroska
    Format version : Version 4/Version 2
    File size : 5.00 GiB
    Duration : 1h 53mn
    Overall bit rate : 6 277 Kbps
    Movie name : Dark Phoenix BDRemux 1080p
    Writing library : Lavf57.71.100
    Video
    ID : 1
    Format : AVC
    Format/Info : Advanced Video Codec
    Format profile : High@L4.1
    Format settings, CABAC : Yes
    Format settings, ReFrames : 4 frames
    Codec ID : V_MPEG4/ISO/AVC
    Duration : 1h 53mn
    Bit rate : 5 000 Kbps
    Width : 1 920 pixels
    Height : 1 080 pixels
    Display aspect ratio : 16: 9
    Frame rate mode : Constant
    Frame rate : 23.976 fps
    Color space : YUV
    Chroma subsampling : 4: 2: 0
    Bit depth : 8 bits
    Scan type : Progressive
    Bits/(Pixel*Frame) : 0.101
    Stream size : 3.88 GiB (78%)
    Writing library : x264 core 157 r2935 545de2f
    Encoding settings : cabac=1/ref=4/deblock=1: -3: -3/analyse=0x3: 0x113/me=umh/subme=10/psy=1/psy_rd=1.05: 0.10/mixed_ref=1/me_range=24/chroma_me=1/trellis=2/8x8dct=1/cqm=0/deadzone=21, 11/fast_pskip=0/chroma_qp_offset=-3/threads=5/lookahead_threads=1/sliced_threads=0/nr=0/decimate=0/interlaced=0/bluray_compat=0/constrained_intra=0/bframes=6/b_pyramid=2/b_adapt=2/b_bias=0/direct=1/weightb=1/open_gop=0/weightp=2/keyint=240/keyint_min=24/scenecut=40/intra_refresh=0/rc=2pass/mbtree=0/bitrate=5000/ratetol=1.0/qcomp=0.70/qpmin=3/qpmax=69/qpstep=4/cplxblur=20.0/qblur=0.5/ip_ratio=1.40/pb_ratio=1.30/aq=2: 1.00
    Language : English
    Default : Yes
    Forced : No
    Audio #1
    ID : 2
    Format : AC-3
    Format/Info : Audio Coding 3
    Mode extension : CM (complete main)
    Format settings, Endianness : Big
    Codec ID : A_AC3
    Duration : 1h 53mn
    Bit rate mode : Constant
    Bit rate : 640 Kbps
    Channel(s) : 6 channels
    Channel positions : Front: L C R, Side: L R, LFE
    Sampling rate : 48.0 KHz
    Bit depth : 16 bits
    Compression mode : Lossy
    Stream size : 522 MiB (10%)
    Title : Russian Лицензия BD EUR
    Language : Russian
    Default : Yes
    Forced : No
    Audio #2
    ID : 3
    Format : AC-3
    Format/Info : Audio Coding 3
    Mode extension : CM (complete main)
    Format settings, Endianness : Big
    Codec ID : A_AC3
    Duration : 1h 53mn
    Bit rate mode : Constant
    Bit rate : 640 Kbps
    Channel(s) : 6 channels
    Channel positions : Front: L C R, Side: L R, LFE
    Sampling rate : 48.0 KHz
    Bit depth : 16 bits
    Compression mode : Lossy
    Stream size : 522 MiB (10%)
    Title : English Original
    Language : English
    Default : No
    Forced : No
    Text #1
    ID : 4
    Format : UTF-8
    Codec ID : S_TEXT/UTF8
    Codec ID/Info : UTF-8 Plain Text
    Title : Russian forced
    Language : Russian
    Default : Yes
    Forced : No
    Text #2
    ID : 5
    Format : UTF-8
    Codec ID : S_TEXT/UTF8
    Codec ID/Info : UTF-8 Plain Text
    Title : Russian full
    Language : Russian
    Default : No
    Forced : No
    Text #3
    ID : 6
    Format : UTF-8
    Codec ID : S_TEXT/UTF8
    Codec ID/Info : UTF-8 Plain Text
    Title : English forced
    Language : English
    Default : No
    Forced : No
    Text #4
    ID : 7
    Format : UTF-8
    Codec ID : S_TEXT/UTF8
    Codec ID/Info : UTF-8 Plain Text
    Title : English full
    Language : English
    Default : No
    Forced : No
    Menu
    00: 00: 00.000 : : Chapter 01
    00: 03: 28.875 : : Chapter 02
    00: 07: 34.620 : : Chapter 03
    00: 11: 42.201 : : Chapter 04
    00: 15: 44.109 : : Chapter 05
    00: 18: 37.407 : : Chapter 06
    00: 25: 24.481 : : Chapter 07
    00: 31: 40.356 : : Chapter 08
    00: 34: 19.306 : : Chapter 09
    00: 40: 07.446 : : Chapter 10
    00: 44: 36.090 : : Chapter 11
    00: 49: 07.778 : : Chapter 12
    00: 55: 38.168 : : Chapter 13
    00: 58: 57.408 : : Chapter 14
    01: 02: 57.190 : : Chapter 15
    01: 10: 40.109 : : Chapter 16
    01: 13: 42.418 : : Chapter 17
    01: 19: 33.477 : : Chapter 18
    01: 22: 35.700 : : Chapter 19
    01: 25: 49.060 : : Chapter 20
    01: 30: 38.349 : : Chapter 21
    01: 32: 48.187 : : Chapter 22
    01: 37: 59.623 : : Chapter 23
    01: 45: 01.044 : : Chapter 24

    Скриншоты для ознакомления



    Все одноименные релизы в Клубе
    Время раздачи: 24/7 (до появления первых 3-5 скачавших)


    Люди Икс: Тёмный Феникс/Dark Phoenix (2019) BDRip [H.264/1080p-LQ] [hand made 16:9]
    Рейтинг →
     (голосов: 1, оценка 5/5, голосовать можно 1 раз )

    Другие торренты по теме:

  • Люди Икс: Тёмный Феникс / Dark Phoenix (2019) TS [H.264 / 720p-LQ] [AD]
  • Hans Zimmer - X-Men: Dark Phoenix / Люди Икс: Тёмный Феникс (Original Motion Picture Soundtrack) (2019) [MP3|320 Kbps] <Soundtrack, Score>
  • Hans Zimmer - X-Men: Dark Phoenix / Люди Икс: Тёмный Феникс (Original Motion Picture Soundtrack) (2019) [FLAC|Lossless|WEB-DL|tracks] <Soundtrack, Score>
  • Люди Икс: Тёмный Феникс / Dark Phoenix (2019) BDRip [H.264 / 1080p] [EN / EN Sub] [PR]
  • Люди Икс: Тёмный Феникс / Dark Phoenix (2019) BDRip [H.264 / 720p] [AD] [PR]
  • Люди Икс: Тёмный Феникс / Dark Phoenix (2019) BDRip [H.264]
  • Люди Икс: Тёмный Феникс / Dark Phoenix (2019) BDRemux [H.264 / 1080p]
  • Люди Икс: Тёмный Феникс / Dark Phoenix (2019) Blu-ray [H.264 / 1080p] [EUR]


    • Комментарии (0):

      Информация

      Информация

        Посетители, находящиеся в группе Гости, не могут оставлять комментарии в данной новости.

        ↓ Меню




        ↓ Опрос

        Вы добавили сайт в закладки?
        Да
        Нет


        Популярное