.
Авторизация | Регистрация

bitok.xyz

» » Чужой: Завет / Alien: Covenant (2017) HDRip [AVO] [hand made Full Fan Cut] торрент скачать бесплатно


    Чужой: Завет / Alien: Covenant (2017) HDRip [AVO] [hand made Full Fan Cut] торрент скачать бесплатно

    Дата: 28-09-2019, 05:00 | .torrent скачали: 0

    Чужой: Завет / Alien: Covenant (2017) HDRip [AVO] [hand made Full Fan Cut]Производство: США, Австралия, Новая Зеландия, Великобритания, 20th Century Fox Film Corporation, Brandywine Productions
    Жанр: Фантастика, триллер, ужасы
    Режиссер: Ридли Скотт

    Актеры
    Майкл Фассбендер, Кэтрин Уотерстон, Билли Крадап, Дэнни МакБрайд, Демиан Бишир, Кармен Эджого, Джусси Смоллетт, Калли Эрнандес, Эми Саймец, Натаниель Дин

    Описание

    Во время обследования удаленной планеты, расположенной на другой стороне галактики, экипаж колониального корабля Завет обнаруживает, что то, что они изначально приняли за неизведанный рай, на самом деле — тёмный и опасный мир. Его единственный житель — синтетический андроид Дэвид, оставшийся в живых после обреченной экспедиционной миссии Прометей.

    Возраст: 18+ (зрителям, достигшим 18 лет. запрещено для детей)
    Рейтинг MPAA: R (лицам до 17 лет обязательно присутствие взрослого)
    Релиз от: lexx256 ®
    Продолжительность: 02: 38: 35
    Качество видео: HDRip
    Перевод: Авторский(Присутствует ненормативная лексика!)
    Субтитры: отсутствуют
    Видео: Xvid, 720x366, ~1900 Kbps
    Аудио: AC3, 6 ch, 192 Kbps | Русский (AVO, Михаил Чадов)
    General
    Complete name : Чужой Завет-2017 Full Fan Cut (HDRip By lexx256).avi
    Format : AVI
    Format/Info : Audio Video Interleave
    Format profile : OpenDML
    Format settings : rec
    File size : 2.32 GiB
    Duration : 2 h 38 min
    Overall bit rate : 2 097 kb/s
    Movie name : Чужой Завет-2017 Full Fan Cut (HDRip By lexx256)
    Writing application : AVI-Mux GUI 1.17.8.3, Feb 16 201019: 42: 50
    Video
    ID : 0
    Format : MPEG-4 Visual
    Format profile : Advanced Simple@L5
    Format settings : BVOP1
    Format settings, BVOP : 1
    Format settings, QPel : No
    Format settings, GMC : No warppoints
    Format settings, Matrix : Default (H.263)
    Codec ID : XVID
    Codec ID/Hint : XviD
    Duration : 2 h 38 min
    Bit rate : 1 900 kb/s
    Width : 720 pixels
    Height : 366 pixels
    Display aspect ratio : 1.967
    Frame rate : 23.976 (24000/1001) FPS
    Color space : YUV
    Chroma subsampling : 4: 2: 0
    Bit depth : 8 bits
    Scan type : Progressive
    Compression mode : Lossy
    Bits/(Pixel*Frame) : 0.301
    Stream size : 2.10 GiB (91%)
    Writing library : XviD 67
    Audio
    ID : 1
    Format : AC-3
    Format/Info : Audio Coding 3
    Commercial name : Dolby Digital
    Codec ID : 2000
    Duration : 2 h 38 min
    Bit rate mode : Constant
    Bit rate : 192 kb/s
    Channel(s) : 6 channels
    Channel layout : L R C LFE Ls Rs
    Sampling rate : 48.0 kHz
    Frame rate : 31.250 FPS (1536 SPF)
    Bit depth : 16 bits
    Compression mode : Lossy
    Stream size : 218 MiB (9%)
    Alignment : Aligned on interleaves
    Interleave, duration : 64 ms (1.53 video frames)
    Interleave, preload duratio : 192 ms
    Title : Михаил Чадов
    Service kind : Complete Main

    Скриншоты для ознакомления



    Все одноименные релизы в Клубе
    Время раздачи: До первых скачавших (до появления первых 3-5 скачавших)

    Чужой: Завет/Alien: Covenant (2017) HDRip [AVO] [hand made Full Fan Cut]
    Рейтинг →
     (голосов: 1, оценка 5/5, голосовать можно 1 раз )

    Другие торренты по теме:

  • Alien: Covenant / Чужой: Завет (2017) WEBRip [H.264 / 1080p] [Трейлер]
  • Чужой: Завет / Alien: Covenant (2017) WEBRip [H.264 / 1080p] [Трейлер]
  • Чужой: Завет. Пролог: Связующее звено / Alien: Covenant. Prologue (2017) WEBRip [H.264 / 1080p] [Тизер]
  • Jed Kurzel - Alien: Covenant / Чужой: Завет (Original Soundtrack Album) (2017) [MP3|320 Kbps] <Score>
  • Jed Kurzel - Alien: Covenant / Чужой: Завет (Original Motion Picture Soundtrack) (2017) [FLAC|Lossless|WEB-DL|tracks]<Soundtrack>
  • Чужой: Завет / Alien: Covenant (2017) TS [H.264 / 720p-LQ] [AD]
  • Чужой:Завет / Alien:Covenant (2017) TS [AD]
  • Чужой: Завет / Alien: Covenant (2017) WEBRip [H.264 / 1080p-LQ] [Звук с TS] [AD]


    • Комментарии (0):

      Информация

      Информация

        Посетители, находящиеся в группе Гости, не могут оставлять комментарии в данной новости.

        ↓ Меню




        ↓ Опрос

        Вы добавили сайт в закладки?
        Да
        Нет


        Популярное