ВАЖНО! Сайт скоро заблокируют! Подписывайся на наш канал в Telegram https://t.me/torrentok и получи доступ к торрентам без ограничений!
.
Авторизация | Регистрация
bitok.xyz
Торрент скачать бесплатно Другое торрент скачать Человек-паук: Вдали от дома / Spider-Man: Far from Home (2019) BDRip 3D [H.264 / 1080p-LQ] [вертикальная анаморфная стереопара] [hand made 16:9] торрент скачать бесплатно


    Человек-паук: Вдали от дома / Spider-Man: Far from Home (2019) BDRip 3D [H.264 / 1080p-LQ] [вертикальная анаморфная стереопара] [hand made 16:9] торрент скачать бесплатно

    Дата: 2-10-2019, 05:00 | .torrent скачали: 2

    Человек-паук: Вдали от дома / Spider-Man: Far from Home (2019) BDRip 3D [H.264 / 1080p-LQ] [вертикальная анаморфная стереопара] [hand made 16:9]Производство: США/Columbia Pictures, Pascal Pictures, Marvel Studios
    Жанр: Фантастика, Боевик, Приключения
    Режиссер: Джон Уоттс

    Актеры
    Том Холланд, Сэмюэл Л. Джексон, Джейк Джилленхол, Зендея, Коби Смолдерс, Мариса Томей, Джон Фавро, Джейкоб Баталон, Тони Револори, Энгаури Райс

    Описание

    Питер Паркер вместе с друзьями отправляется на летние каникулы в Европу. Однако отдохнуть приятелям вряд ли удастся: Питеру придётся согласиться помочь Нику Фьюри раскрыть тайну существ, вызывающих стихийные бедствия и разрушения по всему континенту.

    Возраст: 12+ (зрителям, достигшим 12 лет)
    Рейтинг MPAA: PG-13 (детям до 13 лет просмотр нежелателен)
    Дата мировой премьеры: 26 июня 2019
    Дата российской премьеры: 4 июля 2019, WDSSPR
    Релиз от: SergeyAms
    Продолжительность: 02: 09: 21
    Качество видео: BDRip 3D
    Перевод: Дублированный
    Субтитры: Русские (форс., полные), английские (полные)
    Видео: AVC/H.264, 1920x1080, ~6 Mbps
    Аудио #1: AC3, 6 ch, 384 Kbps - русский (DUB, iTunes)
    Аудио #2: AC3, 6 ch, 640 Kbps - английский
    x264 info: frame I: 1975 Avg QP: 17.66 size: 141261
    x264 info: frame P: 52414 Avg QP: 18.79 size: 57925
    x264 info: frame B: 131731 Avg QP: 20.95 size: 19021
    Unique ID : 220174830193763163368440296164664161516 (0xA5A4213DA813DDD0AD9DEC760D6634EC)
    Complete name : D: TempNNMВдали от дома.3D.2019.1080p.FS.mkv
    Format : Matroska
    Format version : Version 4/Version 2
    File size : 6.35 GiB
    Duration : 2h 9mn
    Overall bit rate : 7 025 Kbps
    Movie name : SPIDERMAN_FFH_2019_3DRMX.Title0
    Encoded date : UTC 2019-10-01 00: 52: 53
    Writing application : mkvmerge v9.8.0 (\'Kuglblids\') 64bit
    Writing library : Lavf57.71.100
    Video
    ID : 1
    Format : AVC
    Format/Info : Advanced Video Codec
    Format profile : High@L4.1
    Format settings, CABAC : Yes
    Format settings, ReFrames : 4 frames
    Codec ID : V_MPEG4/ISO/AVC
    Duration : 2h 9mn
    Bit rate : 6 000 Kbps
    Width : 1 920 pixels
    Height : 1 080 pixels
    Display aspect ratio : 16: 9
    Frame rate mode : Constant
    Frame rate : 23.976 fps
    Color space : YUV
    Chroma subsampling : 4: 2: 0
    Bit depth : 8 bits
    Scan type : Progressive
    Bits/(Pixel*Frame) : 0.121
    Stream size : 5.30 GiB (83%)
    Writing library : x264 core 157 r2935 545de2f
    Encoding settings : cabac=1/ref=4/deblock=1: -2: -2/analyse=0x3: 0x113/me=umh/subme=10/psy=1/psy_rd=1.05: 0.10/mixed_ref=1/me_range=24/chroma_me=1/trellis=2/8x8dct=1/cqm=0/deadzone=21, 11/fast_pskip=0/chroma_qp_offset=-3/threads=5/lookahead_threads=1/sliced_threads=0/nr=0/decimate=0/interlaced=0/bluray_compat=0/constrained_intra=0/bframes=6/b_pyramid=2/b_adapt=2/b_bias=0/direct=1/weightb=1/open_gop=0/weightp=2/keyint=240/keyint_min=24/scenecut=40/intra_refresh=0/rc=2pass/mbtree=0/bitrate=6000/ratetol=1.0/qcomp=0.70/qpmin=3/qpmax=69/qpstep=4/cplxblur=20.0/qblur=0.5/ip_ratio=1.40/pb_ratio=1.30/aq=2: 1.00
    Default : Yes
    Forced : No
    Audio #1
    ID : 2
    Format : AC-3
    Format/Info : Audio Coding 3
    Mode extension : CM (complete main)
    Format settings, Endianness : Big
    Codec ID : A_AC3
    Duration : 2h 9mn
    Bit rate mode : Constant
    Bit rate : 384 Kbps
    Channel(s) : 6 channels
    Channel positions : Front: L C R, Side: L R, LFE
    Sampling rate : 48.0 KHz
    Bit depth : 16 bits
    Compression mode : Lossy
    Stream size : 355 MiB (5%)
    Language : Russian
    Default : Yes
    Forced : No
    Audio #2
    ID : 3
    Format : AC-3
    Format/Info : Audio Coding 3
    Mode extension : CM (complete main)
    Format settings, Endianness : Big
    Codec ID : A_AC3
    Duration : 2h 9mn
    Bit rate mode : Constant
    Bit rate : 640 Kbps
    Channel(s) : 6 channels
    Channel positions : Front: L C R, Side: L R, LFE
    Sampling rate : 48.0 KHz
    Bit depth : 16 bits
    Compression mode : Lossy
    Stream size : 592 MiB (9%)
    Language : English
    Default : No
    Forced : No
    Text #1
    ID : 4
    Format : UTF-8
    Codec ID : S_TEXT/UTF8
    Codec ID/Info : UTF-8 Plain Text
    Title : Forced iTunes
    Language : Russian
    Default : Yes
    Forced : Yes
    Text #2
    ID : 5
    Format : UTF-8
    Codec ID : S_TEXT/UTF8
    Codec ID/Info : UTF-8 Plain Text
    Title : Full iTunes
    Language : Russian
    Default : No
    Forced : No
    Text #3
    ID : 6
    Format : UTF-8
    Codec ID : S_TEXT/UTF8
    Codec ID/Info : UTF-8 Plain Text
    Title : Full
    Language : English
    Default : No
    Forced : No
    Menu
    00: 00: 00.000 : : 00: 00: 00.000
    00: 09: 35.033 : : 00: 09: 35.033
    00: 16: 06.716 : : 00: 16: 06.716
    00: 25: 18.475 : : 00: 25: 18.475
    00: 35: 26.498 : : 00: 35: 26.499
    00: 41: 57.014 : : 00: 41: 57.014
    00: 49: 50.029 : : 00: 49: 50.029
    00: 57: 09.509 : : 00: 57: 09.509
    01: 04: 50.637 : : 01: 04: 50.637
    01: 15: 57.219 : : 01: 15: 57.219
    01: 22: 49.089 : : 01: 22: 49.089
    01: 29: 25.193 : : 01: 29: 25.193
    01: 36: 43.256 : : 01: 36: 43.256
    01: 44: 47.364 : : 01: 44: 47.364
    01: 52: 17.397 : : 01: 52: 17.397
    01: 57: 45.433 : : 01: 57: 45.433

    Скриншоты для ознакомления



    Все одноименные релизы в Клубе
    Время раздачи: 24/7 (до появления первых 3-5 скачавших)

    Человек-паук: Вдали от дома / Spider-Man: Far from Home (2019) BDRip 3D [H.264 / 1080p-LQ] [вертикальная анаморфная стереопара] [hand made 16:9] торрент скачать бесплатно
    Рейтинг →
     (голосов: 1, оценка 3/5, голосовать можно 1 раз )

    Другие торренты по теме:

  • Человек-паук: Вдали от дома / Spider-Man: Far From Home (2019) WEBRip [H.264 / 1080p] [Трейлер] [EN]
  • Человек-паук: Вдали от дома / Spider-Man: Far from Home (2019) CamRip [H.264 / 720p-LQ] [MVO] [AD]
  • Человек-паук: Вдали от дома / Spider-Man: Far from Home (2019) CamRip [H.264 / 720p-LQ] [AD]
  • Michael Giacchino - Spider-Man: Far from Home / Человек-паук: Вдали от дома (Original Motion Picture Soundtrack) (2019) [FLAC|Lossless|WEB-DL|tracks]<Soundtrack>
  • Michael Giacchino - Spider-Man: Far from Home / Человек-паук: Вдали от дома (Original Motion Picture Soundtrack) (2019) [MP3|320 кб / с]<Soundtrack>
  • Человек-паук: Вдали от дома / Spider-Man: Far from Home (2019) TS [H.264 / 720p-LQ] [AD]
  • Человек-паук: Вдали от дома / Spider-Man: Far from Home (2019) WEB-DLRip [Line] [AD]
  • Человек-паук: Вдали от дома / Spider-Man: Far from Home (2019) WEB-DLRip [H.264 / 1080p-LQ] [Line, AD]


    • Комментарии (0):

      Информация

      Информация

        Посетители, находящиеся в группе Гости, не могут оставлять комментарии в данной новости.