ВАЖНО! Сайт скоро заблокируют! Подписывайся на наш канал в Telegram https://t.me/torrentok и получи доступ к торрентам без ограничений!
.
Авторизация | Регистрация
bitok.xyz
Торрент скачать бесплатно Другое торрент скачать Yesterday / Yesterday (2019) BDRip [H.264 / 1080p] [AVO] [hand made 16:9] торрент скачать бесплатно


    Yesterday / Yesterday (2019) BDRip [H.264 / 1080p] [AVO] [hand made 16:9] торрент скачать бесплатно

    Дата: 20-10-2019, 05:00 | .torrent скачали: 10

    Yesterday / Yesterday (2019) BDRip [H.264 / 1080p] [AVO] [hand made 16:9]Производство: Великобритания, Россия, Китай/Etalon Film, Working Title Films
    Жанр: мюзикл, фэнтези, мелодрама, комедия, музыка,
    Режиссер: Дэнни Бойл

    Актеры
    Химеш Патель, Лили Джеймс, Джоэль Фрай, Эд Ширан, Кейт Маккиннон, Мира Сайал, Санджив Бхаскар, Софи Ди Мартино, Эллиз Шаппелль, Гарри Мишель

    Описание

    Еще месяц назад Джек был обычным неудачником. Теперь он суперзвезда, миллионы людей слушают его песни, билеты на концерты раскупаются за секунду. В чем секрет? Все просто. Джек — единственный человек в мире, кто помнит о существовании The Beatles.

    Возраст: 12+ (зрителям, достигшим 12 лет)
    Рейтинг MPAA: PG-13 (детям до 13 лет просмотр нежелателен)
    Дата мировой премьеры: 4 мая 2019
    Дата премьеры в России: 19 сентября 2019

    Продолжительность: 01: 55: 52
    Качество видео: BDRip
    Перевод: одноголосый авторский (С. Визгунов)
    Субтитры: Отсутствуют
    Видео: AVC/H.264, 1920x1080, ~10 Mbps
    Аудио #1: AC3, 6 ch, 640 Kbps - русский AVO (С. Визгунов)
    Аудио #2: AC3, 6 ch, 448 Kbps - английский
    Unique ID : 140224086190396428208674904349284764577 (0x697E2D390E1CAA963F9775B0FD3C0BA1)
    Complete name : D: TempNNMYesterday.2019.1080p.FS.mkv
    Format : Matroska
    Format version : Version 4/Version 2
    File size : 9.00 GiB
    Duration : 1h 56mn
    Overall bit rate : 11.1 Mbps
    Writing library : Lavf57.71.100
    Video
    ID : 1
    Format : AVC
    Format/Info : Advanced Video Codec
    Format profile : High@L4.1
    Format settings, CABAC : Yes
    Format settings, ReFrames : 4 frames
    Codec ID : V_MPEG4/ISO/AVC
    Duration : 1h 56mn
    Bit rate : 10 000 Kbps
    Width : 1 920 pixels
    Height : 1 080 pixels
    Display aspect ratio : 16: 9
    Frame rate mode : Constant
    Frame rate : 23.976 fps
    Color space : YUV
    Chroma subsampling : 4: 2: 0
    Bit depth : 8 bits
    Scan type : Progressive
    Bits/(Pixel*Frame) : 0.201
    Stream size : 7.94 GiB (88%)
    Writing library : x264 core 157 r2935 545de2f
    Encoding settings : cabac=1/ref=4/deblock=1: -3: -3/analyse=0x3: 0x113/me=umh/subme=9/psy=1/psy_rd=1.05: 0.10/mixed_ref=1/me_range=24/chroma_me=1/trellis=2/8x8dct=1/cqm=0/deadzone=21, 11/fast_pskip=0/chroma_qp_offset=-3/threads=5/lookahead_threads=1/sliced_threads=0/nr=0/decimate=0/interlaced=0/bluray_compat=0/constrained_intra=0/bframes=6/b_pyramid=2/b_adapt=2/b_bias=0/direct=1/weightb=1/open_gop=0/weightp=2/keyint=240/keyint_min=24/scenecut=40/intra_refresh=0/rc=2pass/mbtree=0/bitrate=10000/ratetol=1.0/qcomp=0.70/qpmin=3/qpmax=69/qpstep=4/cplxblur=20.0/qblur=0.5/ip_ratio=1.40/pb_ratio=1.30/aq=2: 1.00
    Default : Yes
    Forced : No
    Audio #1
    ID : 2
    Format : AC-3
    Format/Info : Audio Coding 3
    Mode extension : CM (complete main)
    Format settings, Endianness : Big
    Codec ID : A_AC3
    Duration : 1h 56mn
    Bit rate mode : Constant
    Bit rate : 640 Kbps
    Channel(s) : 6 channels
    Channel positions : Front: L C R, Side: L R, LFE
    Sampling rate : 48.0 KHz
    Bit depth : 16 bits
    Compression mode : Lossy
    Stream size : 532 MiB (6%)
    Language : Russian
    Default : Yes
    Forced : No
    Audio #2
    ID : 3
    Format : AC-3
    Format/Info : Audio Coding 3
    Mode extension : CM (complete main)
    Format settings, Endianness : Big
    Codec ID : A_AC3
    Duration : 1h 56mn
    Bit rate mode : Constant
    Bit rate : 448 Kbps
    Channel(s) : 6 channels
    Channel positions : Front: L C R, Side: L R, LFE
    Sampling rate : 48.0 KHz
    Bit depth : 16 bits
    Compression mode : Lossy
    Stream size : 372 MiB (4%)
    Default : No
    Forced : No

    Скриншоты для ознакомления



    Все одноименные релизы в Клубе
    Время раздачи: 24/7 (до появления первых 3-5 скачавших)

    Yesterday / Yesterday (2019) BDRip [H.264 / 1080p] [AVO] [hand made 16:9] торрент скачать бесплатно
    Рейтинг →
     (голосов: 1, оценка 4/5, голосовать можно 1 раз )

    Другие торренты по теме:

  • Yesterday / Yesterday: Печать Люцифера (2012) [Ru / Multi] (1.0.0.1) License PROPHET
  • Yesterday / Yesterday (2019) HDRip [AD]
  • Yesterday / Yesterday (2019) BDRip [H.264 / 720p-LQ] [AD]
  • Yesterday / Yesterday (2019) BDRip [H.264 / 1080p-LQ] [AD]
  • Yesterday / Yesterday (2019) BDRip [H.264 / 1080p] [AVO]
  • Yesterday / Yesterday (2019) BDRemux [H.264 / 1080p]
  • Yesterday / Yesterday (2019) BDRip [H.265] [10-bit]
  • Yesterday / Yesterday (2019) BDRip [H.264 / 720p]


    • Комментарии (0):

      Информация

      Информация

        Посетители, находящиеся в группе Гости, не могут оставлять комментарии в данной новости.