ВАЖНО! Сайт скоро заблокируют! Подписывайся на наш канал в Telegram https://t.me/torrentok и получи доступ к торрентам без ограничений!
.
Авторизация | Регистрация
bitok.xyz
Торрент скачать бесплатно Другое торрент скачать История успеха... Resident Evil 1 (2019) PCRip [H.264 / 1080p-LQ] [VO] торрент скачать бесплатно


    История успеха... Resident Evil 1 (2019) PCRip [H.264 / 1080p-LQ] [VO] торрент скачать бесплатно

    Дата: 7-11-2019, 05:00 | .torrent скачали: 2

    История успеха... Resident Evil 1 (2019) PCRip [H.264 / 1080p-LQ] [VO]Режиссер: Василевич Павел

    Описание

    Ролик снят по популярной теме История успеха... Есть истории успеха бизнесменов, политиков, режиссёров. Почему не может быть истории успеха видеоигр? Видео в стиле книги Кровь, пот и пиксели. Из неё автор и черпал своё вдохновение.
    Почему игра о зомби в особняке? Кто придумал мелодию из комнаты сохранения? Откуда взялась шутка про Джилл-сэндвич? Видео снято чтобы заполнить пробелы у фанатов игры Resident Evil 1.
    Релиз от: Фанатам от Фанатов
    Продолжительность: 00: 24: 37
    Язык озвучки: Одноголосый любительский
    Субтитры: Отсутствуют
    Видео: AVC/H.264, 1920x1080, ~1246 kbps
    Аудио: AAC, 2 ch, 128 kbps
    Общее
    Полное имя : История успеха... Resident Evil 1.mp4
    Формат : MPEG-4
    Профиль формата : Base Media
    Идентификатор кодека : isom (isom/iso2/avc1/mp41)
    Размер файла : 243 Мбайт
    Продолжительность : 24 м. 38 с.
    Общий поток : 1382 Кбит/сек
    Программа кодирования : Lavf56.38.102
    Видео
    Идентификатор : 1
    Формат : AVC
    Формат/Информация : Advanced Video Codec
    Профиль формата : High@L4
    Настройки формата : CABAC/3 Ref Frames
    Параметр CABAC формата : Да
    Параметр RefFrames формата : 3 кадра
    Идентификатор кодека : avc1
    Идентификатор кодека/Информация : Advanced Video Coding
    Продолжительность : 24 м. 37 с.
    Битрейт : 1246 Кбит/сек
    Ширина : 1920 пикселей
    Высота : 1080 пикселей
    Соотношение сторон : 16: 9
    Режим частоты кадров : Постоянный
    Частота кадров : 29, 970 (30000/1001) кадров/сек
    Цветовое пространство : YUV
    Субдискретизация насыщенности : 4: 2: 0
    Битовая глубина : 8 бит
    Тип развёртки : Прогрессивная
    Бит/(Пиксели*Кадры) : 0.020
    Размер потока : 220 Мбайт (90%)
    Цветовой диапазон : Limited
    Основные цвета : BT.709
    Характеристики трансфера : BT.709
    Коэффициенты матрицы : BT.709
    Codec configuration box : avcC
    Аудио
    Идентификатор : 2
    Формат : AAC LC
    Формат/Информация : Advanced Audio Codec Low Complexity
    Идентификатор кодека : mp4a-40-2
    Продолжительность : 24 м. 38 с.
    Вид битрейта : Постоянный
    Битрейт : 128 Кбит/сек
    Каналы : 2 канала
    ChannelLayout : L R
    Частота : 44, 1 КГц
    Частота кадров : 43, 066 кадра/сек (1024 SPF)
    Метод сжатия : С потерями
    Размер потока : 22, 6 Мбайт (9%)
    Default : Да
    AlternateGroup/String : 1

    Скриншоты для ознакомления


    Все одноименные релизы в Клубе
    Время раздачи: 17 - 22 МСК (до появления первых 3-5 скачавших)

    История успеха... Resident Evil 1 (2019) PCRip [H.264 / 1080p-LQ] [VO] торрент скачать бесплатно
    Рейтинг →
     (голосов: 1, оценка 5/5, голосовать можно 1 раз )

    Другие торренты по теме:

  • Татьяна Шахнес | Энциклопедия PR. Рожденная с отраслью. История успеха, рассказанная от первого лица (2014) [FB2, DOCX]
  • Intel - история успеха (2018) WEBRip [H.264 / 720p-LQ] [AVO]


    • Комментарии (0):

      Информация

      Информация

        Посетители, находящиеся в группе Гости, не могут оставлять комментарии в данной новости.