Подписывайся на наш канал в Telegram https://t.me/torrentok и получи доступ к торрентам без ограничений!
.
Авторизация | Регистрация
bitok.xyz
Торрент скачать бесплатно Другое торрент скачать Мстители: Финал / Avengers: Endgame (2019) BDRip [H.264 / 1080p] [Hybrid] [Open Matte] торрент скачать бесплатно


    Мстители: Финал / Avengers: Endgame (2019) BDRip [H.264 / 1080p] [Hybrid] [Open Matte] торрент скачать бесплатно

    Дата: 7-11-2019, 05:00 | .torrent скачали: 0

    Мстители: Финал / Avengers: Endgame (2019) BDRip [H.264 / 1080p] [Hybrid] [Open Matte]Производство: США, Великобритания, Канада/Marvel Studios
    Жанр: фантастика, боевик, приключения
    Режиссер: Энтони Руссо, Джо Руссо

    Актеры
    Роберт Дауни мл., Крис Эванс, Марк Руффало, Крис Хемсворт, Скарлетт Йоханссон, Джереми Реннер, Дон Чидл, Пол Радд, Бри Ларсон, Карен Гиллан

    Описание

    Оставшиеся в живых члены команды Мстителей и их союзники должны разработать новый план, который поможет противостоять разрушительным действиям могущественного титана Таноса. После наиболее масштабной и трагической битвы в истории они не могут допустить ошибку.

    Возраст: 16+ (зрителям, достигшим 16 лет)
    Рейтинг MPAA: PG-13 (детям до 13 лет просмотр нежелателен)
    Дата мировой премьеры: 22 апреля 2019
    Дата российской премьеры: 29 апреля 2019
    Релиз от: TeamHD
    Продолжительность: 03: 01: 11
    Качество видео: BDRip Hybrid
    Перевод: Дублированный
    Субтитры: Русские, английские
    Видео: AVC/H.264, 1920x1080, ~22.7 mbps
    Аудио 1: AC3, 6 ch, 384 kbps, Русский (DUB iTunes)
    Аудио 2: E-AC-3, 8 ch, 1536 kbps, Английский
    Общее
    Уникальный идентификатор : 217261236903832075958011780791368116937 (0xA372FE0036DC474695C0CCAC75C36AC9)
    Полное имя : D: FILMSAvengers.Endgame.2019.Open.Matte.Hybrid.1080p.mkv
    Формат : Matroska
    Версия формата : Version 4
    Размер файла : 31, 3 Гбайт
    Продолжительность : 3 ч. 1 м.
    Общий поток : 24, 6 Мбит/сек
    Дата кодирования : UTC 2019-11-05 14: 51: 40
    Программа кодирования : mkvmerge v8.2.0 (\'World of Adventure\') 64bit
    Библиотека кодирования : libebml v1.3.1 + libmatroska v1.4.2
    Обложка : Yes
    Attachments : cover1.png
    Видео
    Идентификатор : 1
    Формат : AVC
    Формат/Информация : Advanced Video Codec
    Профиль формата : High@L4.1
    Настройки формата : CABAC/4 Ref Frames
    Параметр CABAC формата : Да
    Параметр RefFrames формата : 4 кадра
    Идентификатор кодека : V_MPEG4/ISO/AVC
    Продолжительность : 3 ч. 1 м.
    Битрейт : 22, 7 Мбит/сек
    Ширина : 1920 пикселей
    Высота : 1080 пикселей
    Соотношение сторон : 16: 9
    Режим частоты кадров : Постоянный
    Частота кадров : 23, 976 (24000/1001) кадра/сек
    Цветовое пространство : YUV
    Субдискретизация насыщенности : 4: 2: 0
    Битовая глубина : 8 бит
    Тип развёртки : Прогрессивная
    Бит/(Пиксели*Кадры) : 0.457
    Размер потока : 28, 8 Гбайт (92%)
    Библиотека кодирования : x264 core 157 r2970+47 cae74a0 t_mod_New 0-bit@all X86_64
    Настройки программы : cabac=1/ref=4/deblock=1: -3: -3/analyse=0x3: 0x113/me=umh/subme=11/psy=1/fade_compensate=0.00/psy_rd=1.00: 0.00/mixed_ref=1/me_range=40/chroma_me=1/trellis=2/8x8dct=1/cqm=0/deadzone=21, 11/fast_pskip=0/chroma_qp_offset=-2/threads=12/lookahead_threads=1/sliced_threads=0/nr=0/decimate=1/interlaced=0/bluray_compat=0/constrained_intra=0/fgo=0/bframes=8/b_pyramid=2/b_adapt=2/b_bias=0/direct=1/weightb=1/open_gop=0/weightp=2/keyint=240/keyint_min=23/scenecut=40/intra_refresh=0/rc_lookahead=40/rc=crf/mbtree=0/crf=15.0000/qcomp=0.60/qpmin=0: 0: 0/qpmax=69: 69: 69/qpstep=4/vbv_maxrate=62500/vbv_bufsize=78125/crf_max=0.0/nal_hrd=none/filler=0/ip_ratio=1.25/pb_ratio=1.15/aq=3: 0.85/aq-sensitivity=10.00/aq-factor=1.00: 1.00: 1.00/aq2=0/aq3=0
    Язык : English
    Default : Да
    Forced : Нет
    Цветовой диапазон : Limited
    Основные цвета : BT.709
    Характеристики трансфера : BT.709
    Коэффициенты матрицы : BT.709
    Аудио #1
    Идентификатор : 2
    Формат : AC-3
    Формат/Информация : Audio Coding 3
    Коммерческое название : Dolby Digital
    Идентификатор кодека : A_AC3
    Продолжительность : 3 ч. 1 м.
    Вид битрейта : Постоянный
    Битрейт : 384 Кбит/сек
    Каналы : 6 каналов
    ChannelLayout : L R C LFE Ls Rs
    Частота : 48, 0 КГц
    Частота кадров : 31, 250 кадров/сек (1536 SPF)
    Метод сжатия : С потерями
    Размер потока : 498 Мбайт (2%)
    Заголовок : Дубляж
    Язык : Russian
    ServiceKind/String : Complete Main
    Default : Да
    Forced : Нет
    Аудио #2
    Идентификатор : 3
    Формат : E-AC-3
    Формат/Информация : Enhanced AC-3
    Коммерческое название : Dolby Digital Plus
    Профиль формата : Blu-ray Disc
    Идентификатор кодека : A_EAC3
    Продолжительность : 3 ч. 1 м.
    Вид битрейта : Постоянный
    Битрейт : 1536 Кбит/сек
    Каналы : 6 каналов
    Channel(s)_Original : 8 каналов
    ChannelLayout_Original : L R C LFE Ls Rs Lrs Rrs
    Частота : 48, 0 КГц
    Частота кадров : 31, 250 кадров/сек (1536 SPF)
    Метод сжатия : С потерями
    Размер потока : 1, 94 Гбайт (6%)
    Язык : English
    ServiceKind/String : Complete Main
    Default : Нет
    Forced : Нет
    Текст #1
    Идентификатор : 4
    Формат : UTF-8
    Идентификатор кодека : S_TEXT/UTF8
    Идентификатор кодека/Информация : UTF-8 Plain Text
    Продолжительность : 2 ч. 17 м.
    Битрейт : 1 бит/сек
    ElementCount : 41
    Размер потока : 1, 63 Кбайт (0%)
    Язык : Russian
    Default : Нет
    Forced : Нет
    Текст #2
    Идентификатор : 5
    Формат : UTF-8
    Идентификатор кодека : S_TEXT/UTF8
    Идентификатор кодека/Информация : UTF-8 Plain Text
    Продолжительность : 2 ч. 49 м.
    Битрейт : 78 бит/сек
    ElementCount : 1787
    Размер потока : 97, 1 Кбайт (0%)
    Язык : Russian
    Default : Нет
    Forced : Нет
    Текст #3
    Идентификатор : 6
    Формат : UTF-8
    Идентификатор кодека : S_TEXT/UTF8
    Идентификатор кодека/Информация : UTF-8 Plain Text
    Продолжительность : 2 ч. 48 м.
    Битрейт : 81 бит/сек
    ElementCount : 2239
    Размер потока : 101 Кбайт (0%)
    Язык : Russian
    Default : Нет
    Forced : Нет
    Текст #4
    Идентификатор : 7
    Формат : UTF-8
    Идентификатор кодека : S_TEXT/UTF8
    Идентификатор кодека/Информация : UTF-8 Plain Text
    Продолжительность : 3 ч. 0 м.
    Битрейт : 78 бит/сек
    ElementCount : 2627
    Размер потока : 104 Кбайт (0%)
    Язык : Russian
    Default : Нет
    Forced : Нет
    Текст #5
    Идентификатор : 8
    Формат : UTF-8
    Идентификатор кодека : S_TEXT/UTF8
    Идентификатор кодека/Информация : UTF-8 Plain Text
    Продолжительность : 2 ч. 47 м.
    Битрейт : 49 бит/сек
    ElementCount : 2330
    Размер потока : 61, 4 Кбайт (0%)
    Язык : English
    Default : Нет
    Forced : Нет
    Текст #6
    Идентификатор : 9
    Формат : UTF-8
    Идентификатор кодека : S_TEXT/UTF8
    Идентификатор кодека/Информация : UTF-8 Plain Text
    Продолжительность : 3 ч. 0 м.
    Битрейт : 51 бит/сек
    ElementCount : 2633
    Размер потока : 68, 8 Кбайт (0%)
    Язык : English
    Default : Нет
    Forced : Нет
    Текст #7
    Идентификатор : 10
    Формат : UTF-8
    Идентификатор кодека : S_TEXT/UTF8
    Идентификатор кодека/Информация : UTF-8 Plain Text
    Продолжительность : 3 ч. 0 м.
    Битрейт : 119 бит/сек
    ElementCount : 3260
    Размер потока : 159 Кбайт (0%)
    Язык : English
    Default : Нет
    Forced : Нет
    • OAR UHD HDR BD конвертирован в SDR, используя OAR FHD BD в качестве образца цветопередачи, с помощью AutoOverlay, z.lib и HDRTools.
    • Полученный UHD SDR исходник наложен поверх open matte WEB-DL с помощью AutoOverlay AviSynth plugin.
    • По возможности скрыты русские (WEB-DL) и английские (BD) хардсабы.
    • Форсированные субтитры соответствуют именно этому видеоряду.
    • Хронометраж соответствует FHD BD.
    • Open Matte версия фильма, имеет большее наполнение кадра, по сравнению с блюрэй.
    Blu-Ray vsWEB DL vsHybrid
    http://www.imagebam.com/gallery/tjfk1jutjesimkmyyaa5rtgt89rw7l60
    Скриншоты для ознакомления



    Все одноименные релизы в Клубе
    Время раздачи: c 5 до 19 мск (до появления первых 3-5 скачавших)

    Мстители: Финал / Avengers: Endgame (2019) BDRip [H.264 / 1080p] [Hybrid] [Open Matte] торрент скачать бесплатно
    Рейтинг →
     (голосов: 1, оценка 4/5, голосовать можно 1 раз )

    Другие торренты по теме:

  • Мстители: Финал / Avengers: Endgame (2019) WEBRip [H.264 / 2160p] [4K] [IMAX Edition] [Тизер] [EN]
  • Мстители: Финал / Avengers: Endgame (2019) WEBRip [H.264 / 2160p] [4K] [Трейлер №2] [EN]
  • Alan Silvestri - Avengers: Endgame / Мстители: Финал (Original Motion Picture Soundtrack) (2019) [MP3|320 кб / с]<Soundtrack>
  • Alan Silvestri - Avengers: Endgame / Мстители: Финал (Original Motion Picture Soundtrack) (2019) [FLAC|Lossless|WEB-DL|tracks]<Soundtrack>
  • Мстители: Финал / Avengers: Endgame (2019) TS [H.264 / 720p-LQ] [MVO] [AD]
  • Мстители: Финал / Avengers: Endgame (2019) TC [EN / RU Sub] [Proper]
  • Мстители: Финал / Avengers: Endgame (2019) TC [Line]
  • Мстители: Финал / Avengers: Endgame (2019) TC [H.264 / 720p-LQ] [Line]


    • Комментарии (0):

      Информация

      Информация

        Посетители, находящиеся в группе Гости, не могут оставлять комментарии в данной новости.

        ↓ Меню




        Популярное

        Пентхаус с видом на север / Penthouse North (2013) BDRip [H.264 / 1080p-LQ] [hand-made change colored space]

        (скачиваний: 15)
        Фантастические твари: Преступления Грин-де-Вальда / Fantastic Beasts: The Crimes of Grindelwald (2018) BDRip 3D [H.264 / 1080p] [вертикальная анаморфная стереопара] [hand made 16:9]

        (скачиваний: 9)
        Фантастические твари: Преступления Грин-де-Вальда / Fantastic Beasts: The Crimes of Grindelwald (2018) BDRip [H.264 / 1080p] [hand made 16:9]

        (скачиваний: 9)
        Звёздные войны: Буря в стакане / Star Wars: Storm in the Glass (2004) HDRip [H.264 / 1080p] [Пародия]

        (скачиваний: 9)
        Аквамен / Aquaman (2018) BDRip 3D [H.264 / 1080p] [вертикальная анаморфная стереопара] [hand made 16:9]

        (скачиваний: 7)
        Мир Дикого запада 2 / Westworld (2018) AC3 5.1(сезон 2, серии 1 из 10) [hand made]

        (скачиваний: 6)
        Владимир Кузьмин - О чем то лучшем Live (2004) от ALEXnROCK WEBRip [H.264 / 1080p-LQ] [upscale]

        (скачиваний: 5)
        Сборник клипов - Блатной хит - Видеоколлекция от ALEXnROCK часть 1 (2020) WEBRip [H.264 / 1080p-LQ] [upscale]

        (скачиваний: 5)
        Гемини / Gemini Man (2019) HDRip [H.265] [10-bit] [60 fps]

        (скачиваний: 4)
        Europe - Live in Sweden 1986 (The Final Countdown Tour) от ALEXnROCK (2006) DVDRip [H.264 / 1080p-LQ][upscale]

        (скачиваний: 4)