ВАЖНО! Сайт скоро заблокируют! Подписывайся на наш канал в Telegram https://t.me/torrentok и получи доступ к торрентам без ограничений!
.
Авторизация | Регистрация
bitok.xyz
Торрент скачать бесплатно Другое торрент скачать Мстители: Финал / Avengers: Endgame (2019) Hybrid [H.264 / 1080p][Open Matte] торрент скачать бесплатно


    Мстители: Финал / Avengers: Endgame (2019) Hybrid [H.264 / 1080p][Open Matte] торрент скачать бесплатно

    Дата: 10-11-2019, 05:00 | .torrent скачали: 2

    Мстители: Финал / Avengers: Endgame (2019) Hybrid [H.264 / 1080p][Open Matte]Производство: США, Великобритания, Канада/Marvel Studios
    Жанр: фантастика, боевик, приключения
    Режиссер: Энтони Руссо, Джо Руссо

    Актеры
    Роберт Дауни мл., Крис Эванс, Марк Руффало, Крис Хемсворт, Скарлетт Йоханссон, Джереми Реннер, Дон Чидл, Пол Радд, Бри Ларсон, Карен Гиллан

    Описание

    Оставшиеся в живых члены команды Мстителей и их союзники должны разработать новый план, который поможет противостоять разрушительным действиям могущественного титана Таноса. После наиболее масштабной и трагической битвы в истории они не могут допустить ошибку.

    Возраст: 16+ (зрителям, достигшим 16 лет)
    Рейтинг MPAA: PG-13 (детям до 13 лет просмотр нежелателен)
    Дата мировой премьеры: 22 апреля 2019
    Дата российской премьеры: 29 апреля 2019
    Продолжительность: 03: 01: 48
    Качество видео: Hybrid
    Перевод: Дублированный
    Субтитры: Русские, английские
    Видео: AVC/H.264, 1920x1080, ~12 mbps
    Аудио 1: AC3, 6 ch, 384 kbps, Русский (DUB iTunes)
    Аудио 2: AC3, 6 ch, 640 kbps, Английский
    Общее
    Уникальный идентификатор : 218532512046669892244094583561260882516 (0xA467D4B45FAC4D11932EB4C6205BDA54)
    Полное имя : D: FILMSZALIVAvengers.Endgame.2019.Hybrid.1080p.mkv
    Формат : Matroska
    Версия формата : Version 4
    Размер файла : 16, 5 Гбайт
    Продолжительность : 3 ч. 1 м.
    Общий поток : 13, 0 Мбит/сек
    Дата кодирования : UTC 2019-11-09 10: 34: 54
    Программа кодирования : mkvmerge v8.2.0 (\'World of Adventure\') 64bit
    Библиотека кодирования : libebml v1.3.1 + libmatroska v1.4.2
    Видео
    Идентификатор : 1
    Формат : AVC
    Формат/Информация : Advanced Video Codec
    Профиль формата : High@L4.1
    Настройки формата : CABAC/4 Ref Frames
    Параметр CABAC формата : Да
    Параметр RefFrames формата : 4 кадра
    Идентификатор кодека : V_MPEG4/ISO/AVC
    Продолжительность : 3 ч. 1 м.
    Битрейт : 12, 0 Мбит/сек
    Ширина : 1920 пикселей
    Высота : 1080 пикселей
    Соотношение сторон : 16: 9
    Режим частоты кадров : Постоянный
    Частота кадров : 23, 976 (24000/1001) кадра/сек
    Цветовое пространство : YUV
    Субдискретизация насыщенности : 4: 2: 0
    Битовая глубина : 8 бит
    Тип развёртки : Прогрессивная
    Бит/(Пиксели*Кадры) : 0.241
    Размер потока : 15, 2 Гбайт (92%)
    Библиотека кодирования : x264 core 146 r2538 121396c
    Настройки программы : cabac=1/ref=4/deblock=1: -2: -2/analyse=0x3: 0x133/me=umh/subme=11/psy=1/psy_rd=1.00: 0.00/mixed_ref=1/me_range=32/chroma_me=1/trellis=2/8x8dct=1/cqm=0/deadzone=21, 11/fast_pskip=0/chroma_qp_offset=-2/threads=12/lookahead_threads=2/sliced_threads=0/nr=0/decimate=0/interlaced=0/bluray_compat=0/constrained_intra=0/bframes=12/b_pyramid=2/b_adapt=2/b_bias=0/direct=3/weightb=1/open_gop=0/weightp=2/keyint=240/keyint_min=23/scenecut=40/intra_refresh=0/rc=2pass/mbtree=0/bitrate=12000/ratetol=1.0/qcomp=0.60/qpmin=0/qpmax=69/qpstep=4/cplxblur=20.0/qblur=0.5/ip_ratio=1.40/pb_ratio=1.30/aq=3: 0.80
    Язык : English
    Default : Нет
    Forced : Нет
    Аудио #1
    Идентификатор : 2
    Формат : AC-3
    Формат/Информация : Audio Coding 3
    Коммерческое название : Dolby Digital
    Идентификатор кодека : A_AC3
    Продолжительность : 3 ч. 1 м.
    Вид битрейта : Постоянный
    Битрейт : 384 Кбит/сек
    Каналы : 6 каналов
    ChannelLayout : L R C LFE Ls Rs
    Частота : 48, 0 КГц
    Частота кадров : 31, 250 кадров/сек (1536 SPF)
    Метод сжатия : С потерями
    Размер потока : 498 Мбайт (3%)
    Заголовок : Dub Невафильм (iTunes)
    Язык : Russian
    ServiceKind/String : Complete Main
    Default : Нет
    Forced : Нет
    Аудио #2
    Идентификатор : 3
    Формат : AC-3
    Формат/Информация : Audio Coding 3
    Коммерческое название : Dolby Digital
    Идентификатор кодека : A_AC3
    Продолжительность : 3 ч. 1 м.
    Вид битрейта : Постоянный
    Битрейт : 640 Кбит/сек
    Каналы : 6 каналов
    ChannelLayout : L R C LFE Ls Rs
    Частота : 48, 0 КГц
    Частота кадров : 31, 250 кадров/сек (1536 SPF)
    Метод сжатия : С потерями
    Размер потока : 829 Мбайт (5%)
    Язык : English
    ServiceKind/String : Complete Main
    Default : Нет
    Forced : Нет
    Текст #1
    Идентификатор : 4
    Формат : UTF-8
    Идентификатор кодека : S_TEXT/UTF8
    Идентификатор кодека/Информация : UTF-8 Plain Text
    Продолжительность : 1 ч. 57 м.
    Битрейт : 1 бит/сек
    ElementCount : 30
    Размер потока : 1, 10 Кбайт (0%)
    Заголовок : Forced
    Язык : Russian
    Default : Нет
    Forced : Нет
    Текст #2
    Идентификатор : 5
    Формат : UTF-8
    Идентификатор кодека : S_TEXT/UTF8
    Идентификатор кодека/Информация : UTF-8 Plain Text
    Продолжительность : 3 ч. 0 м.
    Битрейт : 78 бит/сек
    ElementCount : 2627
    Размер потока : 104 Кбайт (0%)
    Заголовок : iTunes
    Язык : Russian
    Default : Нет
    Forced : Нет
    Текст #3
    Идентификатор : 6
    Формат : UTF-8
    Идентификатор кодека : S_TEXT/UTF8
    Идентификатор кодека/Информация : UTF-8 Plain Text
    Продолжительность : 2 ч. 49 м.
    Битрейт : 78 бит/сек
    ElementCount : 1787
    Размер потока : 97, 0 Кбайт (0%)
    Заголовок : Focs
    Язык : Russian
    Default : Нет
    Forced : Нет
    Текст #4
    Идентификатор : 7
    Формат : UTF-8
    Идентификатор кодека : S_TEXT/UTF8
    Идентификатор кодека/Информация : UTF-8 Plain Text
    Продолжительность : 2 ч. 49 м.
    Битрейт : 80 бит/сек
    ElementCount : 2222
    Размер потока : 100 Кбайт (0%)
    Заголовок : Ruf
    Язык : Russian
    Default : Нет
    Forced : Нет
    Текст #5
    Идентификатор : 8
    Формат : UTF-8
    Идентификатор кодека : S_TEXT/UTF8
    Идентификатор кодека/Информация : UTF-8 Plain Text
    Продолжительность : 2 ч. 47 м.
    Битрейт : 49 бит/сек
    ElementCount : 2329
    Размер потока : 61, 1 Кбайт (0%)
    Язык : English
    Default : Нет
    Forced : Нет
    Текст #6
    Идентификатор : 9
    Формат : UTF-8
    Идентификатор кодека : S_TEXT/UTF8
    Идентификатор кодека/Информация : UTF-8 Plain Text
    Продолжительность : 3 ч. 0 м.
    Битрейт : 51 бит/сек
    ElementCount : 2630
    Размер потока : 68, 3 Кбайт (0%)
    Заголовок : SDH
    Язык : English
    Default : Нет
    Forced : Нет
    Текст #7
    Идентификатор : 10
    Формат : UTF-8
    Идентификатор кодека : S_TEXT/UTF8
    Идентификатор кодека/Информация : UTF-8 Plain Text
    Продолжительность : 3 ч. 0 м.
    Битрейт : 65 бит/сек
    ElementCount : 2630
    Размер потока : 86, 9 Кбайт (0%)
    Заголовок : SDH-Colored
    Язык : English
    Default : Нет
    Forced : Нет
    Меню
    00: 00: 00.000 : en: Chapter 01
    00: 08: 05.901 : en: Chapter 02
    00: 20: 01.700 : en: Chapter 03
    00: 26: 15.280 : en: Chapter 04
    00: 36: 57.172 : en: Chapter 05
    00: 43: 20.597 : en: Chapter 06
    00: 48: 44.170 : en: Chapter 07
    00: 57: 36.744 : en: Chapter 08
    01: 07: 12.610 : en: Chapter 09
    01: 16: 02.515 : en: Chapter 10
    01: 26: 25.430 : en: Chapter 11
    01: 32: 20.117 : en: Chapter 12
    01: 38: 55.804 : en: Chapter 13
    01: 48: 12.359 : en: Chapter 14
    01: 57: 26.912 : en: Chapter 15
    02: 05: 00.242 : en: Chapter 16
    02: 15: 06.430 : en: Chapter 17
    02: 25: 50.450 : en: Chapter 18
    02: 34: 37.933 : en: Chapter 19
    02: 43: 03.897 : en: Chapter 20
    02: 49: 05.343 : en: Chapter 21
    • OAR UHD HDR BD конвертирован в SDR, используя OAR FHD BD в качестве образца цветопередачи, с помощью AutoOverlay, z.lib и HDRTools.
    • Полученный UHD SDR исходник наложен поверх open matte WEB-DL с помощью AutoOverlay AviSynth plugin.
    • По возможности скрыты русские (WEB-DL) и английские (BD) хардсабы.
    • Форсированные субтитры соответствуют именно этому видеоряду.
    • Хронометраж соответствует FHD BD.
    • Open Matte версия фильма, имеет большее наполнение кадра, по сравнению с блюрэй.
    Blu-Ray vsWEB DL vsHybrid
    http://www.imagebam.com/gallery/tjfk1jutjesimkmyyaa5rtgt89rw7l60
    Скриншоты для ознакомления



    Все одноименные релизы в Клубе
    Время раздачи: c 5 до 19 мск (до появления первых 3-5 скачавших)

    Мстители: Финал / Avengers: Endgame (2019) Hybrid [H.264 / 1080p][Open Matte] торрент скачать бесплатно
    Рейтинг →
     (голосов: 1, оценка 3/5, голосовать можно 1 раз )

    Другие торренты по теме:

  • Мстители: Финал / Avengers: Endgame (2019) WEBRip [H.264 / 2160p] [4K] [IMAX Edition] [Тизер] [EN]
  • Мстители: Финал / Avengers: Endgame (2019) WEBRip [H.264 / 2160p] [4K] [Трейлер №2] [EN]
  • Alan Silvestri - Avengers: Endgame / Мстители: Финал (Original Motion Picture Soundtrack) (2019) [MP3|320 кб / с]<Soundtrack>
  • Alan Silvestri - Avengers: Endgame / Мстители: Финал (Original Motion Picture Soundtrack) (2019) [FLAC|Lossless|WEB-DL|tracks]<Soundtrack>
  • Мстители: Финал / Avengers: Endgame (2019) TS [H.264 / 720p-LQ] [MVO] [AD]
  • Мстители: Финал / Avengers: Endgame (2019) TC [EN / RU Sub] [Proper]
  • Мстители: Финал / Avengers: Endgame (2019) TC [Line]
  • Мстители: Финал / Avengers: Endgame (2019) TC [H.264 / 720p-LQ] [Line]


    • Комментарии (0):

      Информация

      Информация

        Посетители, находящиеся в группе Гости, не могут оставлять комментарии в данной новости.