ВАЖНО! Сайт скоро заблокируют! Подписывайся на наш канал в Telegram https://t.me/torrentok и получи доступ к торрентам без ограничений!
.
Авторизация | Регистрация
bitok.xyz
Торрент скачать бесплатно Другое торрент скачать Аладдин / Aladdin (2019) Hybrid [H.264 / 1080p-LQ] [IMAX edition] торрент скачать бесплатно


    Аладдин / Aladdin (2019) Hybrid [H.264 / 1080p-LQ] [IMAX edition] торрент скачать бесплатно

    Дата: 12-11-2019, 05:00 | .torrent скачали: 22

    Аладдин / Aladdin (2019) Hybrid [H.264 / 1080p-LQ] [IMAX edition]Производство: США/Walt Disney Pictures, Lin Pictures, Rideback
    Жанр: мюзикл, фэнтези, мелодрама, приключения, семейный
    Режиссер: Гай Ричи

    Актеры
    Мена Массуд, Наоми Скотт, Уилл Смит, Марван Кензари, Навид Негабан, Назим Педрад, Билли Магнуссен, Джордан А. Нэш, Талия Блэр, Обри Лин

    Описание

    Молодой воришка по имени Аладдин хочет стать принцем, чтобы жениться на принцессе Жасмин. Тем временем визирь Аграбы Джафар намеревается захватить власть над Аграбой, а для этого он стремится заполучить волшебную лампу, хранящуюся в пещере чудес, доступ к которой разрешен лишь тому, кого называют алмаз неограненный, и этим человеком является не кто иной, как сам Аладдин.

    Возраст: 6+ (зрителям, достигшим 6 лет)
    Рейтинг MPAA: PG (рекомендуется присутствие родителей)
    Дата мировой премьеры: 8 мая 2019
    Дата российской премьеры: 23 мая 2019
    Продолжительность: 02: 07: 58
    Качество видео: Hybrid
    Перевод: Дублированный (Лицензия)
    Субтитры: русские, английские
    Видео: AVC/H.264, 1920x1080, ~5816 kbps
    Аудио 1: AC3, 6 ch, 640 kbps, Русский (DUB)
    Аудио 2: AC3, 6 ch, 448 kbps, Английский
    Общее
    Уникальный идентификатор : 173908324904852999665629262928361763743 (0x82D58669C233433983E8AED24C77339F)
    Полное имя : D: FILMSZALIVAladdin.(2019).Hybrid.1080p.IMAX.mkv
    Формат : Matroska
    Версия формата : Version 4
    Размер файла : 6, 17 Гбайт
    Продолжительность : 2 ч. 7 м.
    Общий поток : 6906 Кбит/сек
    Дата кодирования : UTC 2019-11-10 10: 09: 06
    Программа кодирования : mkvmerge v8.2.0 (\'World of Adventure\') 64bit
    Библиотека кодирования : libebml v1.3.1 + libmatroska v1.4.2
    Видео
    Идентификатор : 1
    Формат : AVC
    Формат/Информация : Advanced Video Codec
    Профиль формата : High@L4
    Настройки формата : CABAC/2 Ref Frames
    Параметр CABAC формата : Да
    Параметр RefFrames формата : 2 кадра
    Идентификатор кодека : V_MPEG4/ISO/AVC
    Продолжительность : 2 ч. 7 м.
    Битрейт : 5816 Кбит/сек
    Ширина : 1920 пикселей
    Высота : 1080 пикселей
    Соотношение сторон : 16: 9
    Режим частоты кадров : Постоянный
    Частота кадров : 23, 976 (24000/1001) кадра/сек
    Цветовое пространство : YUV
    Субдискретизация насыщенности : 4: 2: 0
    Битовая глубина : 8 бит
    Тип развёртки : Прогрессивная
    Бит/(Пиксели*Кадры) : 0.117
    Размер потока : 5, 20 Гбайт (84%)
    Библиотека кодирования : x264 core 155 r2901 7d0ff22
    Default : Да
    Forced : Нет
    Цветовой диапазон : Limited
    Основные цвета : BT.709
    Характеристики трансфера : BT.709
    Коэффициенты матрицы : BT.709
    Аудио #1
    Идентификатор : 2
    Формат : AC-3
    Формат/Информация : Audio Coding 3
    Коммерческое название : Dolby Digital
    Идентификатор кодека : A_AC3
    Продолжительность : 2 ч. 7 м.
    Вид битрейта : Постоянный
    Битрейт : 640 Кбит/сек
    Каналы : 6 каналов
    ChannelLayout : L R C LFE Ls Rs
    Частота : 48, 0 КГц
    Частота кадров : 31, 250 кадров/сек (1536 SPF)
    Метод сжатия : С потерями
    Размер потока : 586 Мбайт (9%)
    Заголовок : DUB
    Язык : Russian
    ServiceKind/String : Complete Main
    Default : Да
    Forced : Нет
    Аудио #2
    Идентификатор : 3
    Формат : AC-3
    Формат/Информация : Audio Coding 3
    Коммерческое название : Dolby Digital
    Идентификатор кодека : A_AC3
    Продолжительность : 2 ч. 7 м.
    Вид битрейта : Постоянный
    Битрейт : 448 Кбит/сек
    Каналы : 6 каналов
    ChannelLayout : L R C LFE Ls Rs
    Частота : 48, 0 КГц
    Частота кадров : 31, 250 кадров/сек (1536 SPF)
    Метод сжатия : С потерями
    Задержка видео : 24 мс.
    Размер потока : 410 Мбайт (6%)
    Язык : English
    ServiceKind/String : Complete Main
    Default : Нет
    Forced : Нет
    Текст #1
    Идентификатор : 4
    Формат : UTF-8
    Идентификатор кодека : S_TEXT/UTF8
    Идентификатор кодека/Информация : UTF-8 Plain Text
    Продолжительность : 2 ч. 0 м.
    Битрейт : 87 бит/сек
    ElementCount : 1787
    Размер потока : 76, 7 Кбайт (0%)
    Язык : Russian
    Default : Нет
    Forced : Нет
    Текст #2
    Идентификатор : 5
    Формат : UTF-8
    Идентификатор кодека : S_TEXT/UTF8
    Идентификатор кодека/Информация : UTF-8 Plain Text
    Продолжительность : 2 ч. 6 м.
    Битрейт : 65 бит/сек
    ElementCount : 2111
    Размер потока : 61, 0 Кбайт (0%)
    Язык : English
    Default : Нет
    Forced : Нет
    Не официальная IMAX версия собрана из двух WEB-DL. Присутствуют сцены IMAX с полной картинкой и сцены Open Matte где сбоку немного обрезано. Всего IMAX и Open Matte сцен примерно на 20 минут, основная часть фильма как на Bluray


    Скриншоты для ознакомления



    Все одноименные релизы в Клубе
    Время раздачи: c 5 до 19 мск (до появления первых 3-5 скачавших)

    Аладдин / Aladdin (2019) Hybrid [H.264 / 1080p-LQ] [IMAX edition] торрент скачать бесплатно
    Рейтинг →
     (голосов: 1, оценка 4/5, голосовать можно 1 раз )

    Другие торренты по теме:

  • Аладдин / Aladdin (1992) BDRemux [H.264 / 1080p] скачать через торрент бесплатно
  • Аладдин / Aladdin (1992) HDRip [H.264] [MP4|960х512]
  • Аладдин / Aladdin (1992) BDRip [H.265 / 1080p-LQ]
  • Аладдин / Aladdin (1992) BDRip [H.264 / 1080p]
  • Аладдин / Aladdin (1994-1995) DVB (Сезон 1-2, серий 86)
  • Аладдин / Aladdin (2019) TS [H.264 / 720p-LQ] [AD]
  • Аладдин / Aladdin (2019) WEB-DLRip [H.264 / 720p-LQ] [Звук с TS] [AD]
  • Аладдин / Aladdin (2019) WEB-DLRip [UKR, EN / ENG Sub] [Line]


    • Комментарии (0):

      Информация

      Информация

        Посетители, находящиеся в группе Гости, не могут оставлять комментарии в данной новости.