ВАЖНО! Сайт скоро заблокируют! Подписывайся на наш канал в Telegram https://t.me/torrentok и получи доступ к торрентам без ограничений!
.
Авторизация | Регистрация
bitok.xyz
Торрент скачать бесплатно Другое торрент скачать Аквамен / Aquaman (2018) Hybrid [H.264 / 1080p-LQ] [Open Matte] торрент скачать бесплатно


    Аквамен / Aquaman (2018) Hybrid [H.264 / 1080p-LQ] [Open Matte] торрент скачать бесплатно

    Дата: 14-11-2019, 05:00 | .torrent скачали: 3

    Аквамен / Aquaman (2018) Hybrid [H.264 / 1080p-LQ] [Open Matte]Производство: США, Австралия/DC Comics, DC Entertainment, Panoramic Pictures
    Жанр: фантастика, фэнтези, боевик, приключения
    Режиссер: Джеймс Ван

    Актеры
    Джейсон Момоа, Эмбер Хёрд, Дольф Лундгрен, Николь Кидман, Джули Эндрюс, Патрик Уилсон, Уиллем Дефо, Грэм МакТавиш, Талия Джейд, Джимон Хонсу, Темуэра Моррисон, Майкл Бич

    Описание

    Действие фильма разворачивается в необъятном и захватывающем подводном мире семи морей, а сюжет знакомит зрителей с историей происхождения получеловека-полуатланта Артура Карри и ключевыми событиями его жизни — теми, что заставят его не только столкнуться с самим собой, но и выяснить, достоин ли он быть тем, кем ему суждено… царем!

    Возраст: 12+ (зрителям, достигшим 12 лет)
    Рейтинг MPAA: PG-13 (детям до 13 лет просмотр нежелателен)
    Продолжительность: 02: 23: 17
    Качество видео: Hybrid
    Перевод: Дублированный
    Субтитры: русские, английские
    Видео: AVC/H.264, 1920x1080, ~8214 kbps
    Аудио 1: AC3, 6 ch, 448 kbps, Русский (DUB)
    Аудио 2: AC3, 6 ch, 448 kbps, Английский
    Общее
    Уникальный идентификатор : 178826491038735590595595755310983791162 (0x8688BAB992B1D1F0BCC5BCDA1569C23A)
    Полное имя : D: FILMSZALIVAquaman.Hybrid.(2018).1080p.Open.Matte.mkv
    Формат : Matroska
    Версия формата : Version 4
    Размер файла : 9, 12 Гбайт
    Продолжительность : 2 ч. 23 м.
    Общий поток : 9111 Кбит/сек
    Дата кодирования : UTC 2019-05-21 17: 47: 03
    Программа кодирования : mkvmerge v8.3.0 (\'Over the Horizon\') 32bit
    Библиотека кодирования : libebml v1.3.1 + libmatroska v1.4.2
    Видео
    Идентификатор : 1
    Формат : AVC
    Формат/Информация : Advanced Video Codec
    Профиль формата : High@L4
    Настройки формата : CABAC/4 Ref Frames
    Параметр CABAC формата : Да
    Параметр RefFrames формата : 4 кадра
    Идентификатор кодека : V_MPEG4/ISO/AVC
    Продолжительность : 2 ч. 23 м.
    Битрейт : 8214 Кбит/сек
    Ширина : 1920 пикселей
    Высота : 1080 пикселей
    Соотношение сторон : 16: 9
    Режим частоты кадров : Постоянный
    Частота кадров : 23, 976 (24000/1001) кадра/сек
    Цветовое пространство : YUV
    Субдискретизация насыщенности : 4: 2: 0
    Битовая глубина : 8 бит
    Тип развёртки : Прогрессивная
    Бит/(Пиксели*Кадры) : 0.165
    Размер потока : 8, 22 Гбайт (90%)
    Default : Нет
    Forced : Нет
    Аудио #1
    Идентификатор : 2
    Формат : AC-3
    Формат/Информация : Audio Coding 3
    Коммерческое название : Dolby Digital
    Идентификатор кодека : A_AC3
    Продолжительность : 2 ч. 23 м.
    Вид битрейта : Постоянный
    Битрейт : 448 Кбит/сек
    Каналы : 6 каналов
    ChannelLayout : L R C LFE Ls Rs
    Частота : 48, 0 КГц
    Частота кадров : 31, 250 кадров/сек (1536 SPF)
    Метод сжатия : С потерями
    Задержка видео : -180 мс.
    Размер потока : 459 Мбайт (5%)
    Язык : Russian
    ServiceKind/String : Complete Main
    Default : Да
    Forced : Нет
    Аудио #2
    Идентификатор : 3
    Формат : AC-3
    Формат/Информация : Audio Coding 3
    Коммерческое название : Dolby Digital
    Идентификатор кодека : A_AC3
    Продолжительность : 2 ч. 23 м.
    Вид битрейта : Постоянный
    Битрейт : 448 Кбит/сек
    Каналы : 6 каналов
    ChannelLayout : L R C LFE Ls Rs
    Частота : 48, 0 КГц
    Частота кадров : 31, 250 кадров/сек (1536 SPF)
    Метод сжатия : С потерями
    Задержка видео : -180 мс.
    Размер потока : 459 Мбайт (5%)
    Язык : English
    ServiceKind/String : Complete Main
    Default : Нет
    Forced : Нет
    Текст #1
    Идентификатор : 4
    Формат : UTF-8
    Идентификатор кодека : S_TEXT/UTF8
    Идентификатор кодека/Информация : UTF-8 Plain Text
    Продолжительность : 2 ч. 22 м.
    Битрейт : 54 бит/сек
    ElementCount : 1119
    Размер потока : 57, 2 Кбайт (0%)
    Язык : Russian
    Default : Нет
    Forced : Нет
    Текст #2
    Идентификатор : 5
    Формат : UTF-8
    Идентификатор кодека : S_TEXT/UTF8
    Идентификатор кодека/Информация : UTF-8 Plain Text
    Продолжительность : 2 ч. 14 м.
    Битрейт : 37 бит/сек
    ElementCount : 1132
    Размер потока : 36, 7 Кбайт (0%)
    Язык : English
    Default : Нет
    Forced : Нет


    Аквамен / Aquaman (2018) Hybrid [H.264 / 1080p-LQ] [Open Matte] торрент скачать бесплатно
    Рейтинг →
     (голосов: 1, оценка 5/5, голосовать можно 1 раз )

    Другие торренты по теме:

  • Аквамен / Aquaman (2018) CAMRip [MVO] [AD]
  • Аквамен / Aquaman (2018) TS [MVO, AD]
  • Аквамен / Aquaman (2018) TS [AD]
  • Аквамен / Aquaman (2018) WEBRip [H.264 / 1080p] [MVO]
  • Аквамен / Aquaman (2018) WEBRip [H.264 / 720p] [MVO]
  • Аквамен / Aquaman (2018) WEBRip [H.264 / 1080p-LQ] [MVO]
  • Аквамен / Aquaman (2018) WEBRip [MVO]
  • Аквамен / Aquaman (2018) WEBRip [H.264 / 720p-LQ] [MVO]


    • Комментарии (0):

      Информация

      Информация

        Посетители, находящиеся в группе Гости, не могут оставлять комментарии в данной новости.