Подписывайся на наш канал в Telegram https://t.me/torrentok и получи доступ к торрентам без ограничений!
.
Авторизация | Регистрация
bitok.xyz
Торрент скачать бесплатно Другое торрент скачать Капкан / Crawl (2019) BDRip [H.264 / 1080p-LQ] [hand made 16:9] торрент скачать бесплатно


    Капкан / Crawl (2019) BDRip [H.264 / 1080p-LQ] [hand made 16:9] торрент скачать бесплатно

    Дата: 17-11-2019, 05:00 | .torrent скачали: 9

    Капкан / Crawl (2019) BDRip [H.264 / 1080p-LQ] [hand made 16:9]Производство: США, Сербия, Канада/Paramount Pictures
    Жанр: ужасы, боевик, триллер, драма
    Режиссер: Александр Ажа

    Актеры
    Кая Скоделарио, Бэрри Пеппер, Морфидд Кларк, Росс Андерсон, Хосе Пальма, Джордж Сомнер, Энсон Бун, Эми Меткалф, Тина Прибичевич, Срна Васильевич

    Описание

    У пловчихи Хэйли день не задался: сначала она проиграла заплыв, уступив доли секунды, а затем на Флориду обрушивается ураган 5-й категории. Но что ещё хуже, отец не выходит на связь, поэтому Хэйли отправляется в уже эвакуированную зону и находит его тяжелораненым и без сознания в подвале их старого дома. Пытаясь вытащить отца из сырого подвального помещения, девушка обнаруживает, что тут засел огромный агрессивный аллигатор. Неудачный день продолжается — вода прибывает, помощи ждать неоткуда, а зубастая рептилия готова напасть при любой возможности.

    Возраст: 18+ (зрителям, достигшим 18 лет. запрещено для детей)
    Рейтинг MPAA: R (лицам до 17 лет обязательно присутствие взрослого)
    Дата мировой премьеры: 10 июля 2019
    Дата российской премьеры: 22 августа 2019, Централ Партнершип
    Релиз от: SergeyAms
    Продолжительность: 01: 27: 32
    Качество видео: BDRip
    Перевод: Дублированный (лицензия)
    Субтитры: русские (форс., полные), английские (полные)
    Видео: AVC/H.264, 1920x1080, ~5 Mbps
    Аудио #1: AC3, 6 ch, 640 kbps - русский
    Аудио #2: DTS, 6 ch, 768 kbps - английский
    x264 info: frame I: 731 Avg QP: 17.88 size: 112648
    x264 info: frame P: 33188 Avg QP: 19.06 size: 43585
    x264 info: frame B: 92005 Avg QP: 22.08 size: 18976
    Unique ID : 173884706030493433107458779032773662409 (0x82D0F9E9A722B40D8959DAFCBF4B16C9)
    Complete name : D: TempNNMКапкан.2019.1080p.FS.mkv
    Format : Matroska
    Format version : Version 4/Version 2
    File size : 3.91 GiB
    Duration : 1h 27mn
    Overall bit rate : 6 399 Kbps
    Movie name : Crawl_2019
    Encoded date : UTC 2019-11-16 06: 04: 14
    Writing application : mkvmerge v9.8.0 (\'Kuglblids\') 64bit
    Writing library : libebml v1.3.4 + libmatroska v1.4.5
    Video
    ID : 1
    Format : AVC
    Format/Info : Advanced Video Codec
    Format profile : High@L4.1
    Format settings, CABAC : Yes
    Format settings, ReFrames : 4 frames
    Codec ID : V_MPEG4/ISO/AVC
    Duration : 1h 27mn
    Bit rate : 5 000 Kbps
    Width : 1 920 pixels
    Height : 1 080 pixels
    Display aspect ratio : 16: 9
    Frame rate mode : Constant
    Frame rate : 23.976 fps
    Color space : YUV
    Chroma subsampling : 4: 2: 0
    Bit depth : 8 bits
    Scan type : Progressive
    Bits/(Pixel*Frame) : 0.101
    Stream size : 2.97 GiB (76%)
    Writing library : x264 core 157 r2935 545de2f
    Encoding settings : cabac=1/ref=4/deblock=1: -2: -2/analyse=0x3: 0x113/me=umh/subme=10/psy=1/psy_rd=1.05: 0.10/mixed_ref=1/me_range=24/chroma_me=1/trellis=2/8x8dct=1/cqm=0/deadzone=21, 11/fast_pskip=0/chroma_qp_offset=-3/threads=5/lookahead_threads=1/sliced_threads=0/nr=0/decimate=0/interlaced=0/bluray_compat=0/constrained_intra=0/bframes=6/b_pyramid=2/b_adapt=2/b_bias=0/direct=1/weightb=1/open_gop=0/weightp=2/keyint=240/keyint_min=24/scenecut=40/intra_refresh=0/rc=2pass/mbtree=0/bitrate=5000/ratetol=1.0/qcomp=0.70/qpmin=3/qpmax=69/qpstep=4/cplxblur=20.0/qblur=0.5/ip_ratio=1.40/pb_ratio=1.30/aq=2: 1.00
    Default : Yes
    Forced : No
    Audio #1
    ID : 2
    Format : AC-3
    Format/Info : Audio Coding 3
    Mode extension : CM (complete main)
    Format settings, Endianness : Big
    Codec ID : A_AC3
    Duration : 1h 27mn
    Bit rate mode : Constant
    Bit rate : 640 Kbps
    Channel(s) : 6 channels
    Channel positions : Front: L C R, Side: L R, LFE
    Sampling rate : 48.0 KHz
    Bit depth : 16 bits
    Compression mode : Lossy
    Stream size : 401 MiB (10%)
    Language : Russian
    Default : Yes
    Forced : No
    Audio #2
    ID : 3
    Format : DTS
    Format/Info : Digital Theater Systems
    Mode : 16
    Format settings, Endianness : Big
    Codec ID : A_DTS
    Duration : 1h 27mn
    Bit rate mode : Constant
    Bit rate : 768 Kbps
    Channel(s) : 6 channels
    Channel positions : Front: L C R, Side: L R, LFE
    Sampling rate : 48.0 KHz
    Bit depth : 16 bits
    Compression mode : Lossy
    Stream size : 481 MiB (12%)
    Language : English
    Default : No
    Forced : No
    Text #1
    ID : 4
    Format : UTF-8
    Codec ID : S_TEXT/UTF8
    Codec ID/Info : UTF-8 Plain Text
    Title : Forced
    Language : Russian
    Default : Yes
    Forced : Yes
    Text #2
    ID : 5
    Format : UTF-8
    Codec ID : S_TEXT/UTF8
    Codec ID/Info : UTF-8 Plain Text
    Title : Full
    Language : Russian
    Default : No
    Forced : No
    Text #3
    ID : 6
    Format : UTF-8
    Codec ID : S_TEXT/UTF8
    Codec ID/Info : UTF-8 Plain Text
    Title : Full
    Language : English
    Default : No
    Forced : No
    Menu
    00: 00: 00.000 : en: Chapter 01
    00: 07: 51.804 : en: Chapter 02
    00: 15: 16.290 : en: Chapter 03
    00: 22: 15.459 : en: Chapter 04
    00: 34: 42.997 : en: Chapter 05
    00: 42: 15.282 : en: Chapter 06
    00: 50: 13.218 : en: Chapter 07
    00: 57: 13.221 : en: Chapter 08
    01: 03: 51.619 : en: Chapter 09
    01: 08: 56.298 : en: Chapter 10
    01: 16: 36.425 : en: Chapter 11
    01: 23: 10.610 : en: Chapter 12

    Скриншоты для ознакомления



    Все одноименные релизы в Клубе
    Время раздачи: 24/7 (до появления первых 3-5 скачавших)

    Капкан / Crawl (2019) BDRip [H.264 / 1080p-LQ] [hand made 16:9] торрент скачать бесплатно
    Рейтинг →
     (голосов: 1, оценка 4/5, голосовать можно 1 раз )

    Другие торренты по теме:

  • Капкан / Crawl (2019) WEB-DLRip [AD]
  • Капкан / Crawl (2019) WEB-DLRip [H.264 / 1080p-LQ] [AD]
  • Капкан / Crawl (2019) BDRip [H.264 / 1080p] [EN / RU, EN Sub] [PR]
  • Капкан / Crawl (2019) BDRip [H.264 / 1080p] [VO]
  • Капкан / Crawl (2019) BDRemux [H.264 / 1080p] [VO]
  • Капкан / Crawl (2019) BDRip [H.264 / 720p] [VO]
  • Капкан / Crawl (2019) BDRip [H.264 / 1080p]
  • Капкан / Crawl (2019) BDRemux [H.264 / 1080p]


    • Комментарии (0):

      Информация

      Информация

        Посетители, находящиеся в группе Гости, не могут оставлять комментарии в данной новости.