Подписывайся на наш канал в Telegram https://t.me/torrentok и получи доступ к торрентам без ограничений!
.
Авторизация | Регистрация
bitok.xyz
Торрент скачать бесплатно Другое торрент скачать Форсаж: Хоббс и Шоу / Fast & Furious Presents: Hobbs & Shaw (2019) BDRip 3D [H.264 / 1080p] [вертикальная анаморфная стереопара] [hand made 16:9] торрент скачать бесплатно


    Форсаж: Хоббс и Шоу / Fast & Furious Presents: Hobbs & Shaw (2019) BDRip 3D [H.264 / 1080p] [вертикальная анаморфная стереопара] [hand made 16:9] торрент скачать бесплатно

    Дата: 17-11-2019, 05:00 | .torrent скачали: 8

    Форсаж: Хоббс и Шоу / Fast & Furious Presents: Hobbs & Shaw (2019) BDRip 3D [H.264 / 1080p] [вертикальная анаморфная стереопара] [hand made 16:9]Производство: США/Chris Morgan Productions, Seven Bucks Productions, Universal Pictures
    Жанр: Боевик, комедия, приключения
    Режиссер: Дэвид Литч

    Актеры
    Дуэйн Джонсон, Джейсон Стэйтем, Ванесса Кирби, Идрис Эльба, Эдди Марсан, Хелен Миррен, Райан Рейнольдс, Эйса Гонсалес, Клифф Кёртис, Элиана Суа

    Описание

    Люк Хоббс — американский элитный спецагент, он любит удобную спортивную одежду, большие пикапы и здоровое питание. Декард Шоу — британский пижон, бывший сотрудник разведки, предпочитает дорогие костюмы, спортивные авто и длинноногих красоток.
    Эти двое ненавидят друг друга. Но если кто-то угрожает их семьям, они готовы пойти на все. Даже на работу в команде.

    Возраст: 12+ (зрителям, достигшим 12 лет)
    Рейтинг MPAA: PG-13 (детям до 13 лет просмотр нежелателен)
    Дата мировой премьеры: 31 июля 2019
    Дата российской премьеры: 1 августа 2019
    Релиз от: SergeyAms
    Продолжительность: 02: 16: 42
    Качество видео: BDRip 3D
    Перевод: Дублированный (лицензия)
    Субтитры: Русские (форс., ), английские
    Видео: AVC/H.264, 1920x1080, ~10 Mbps
    Аудио #1: AC3, 6 ch, 640 Kbps - Русский (дубляж, Blu Ray)
    Аудио #2: AC3, 6 ch, 448 Kbps - Английский
    x264 info: frame I: 2337 Avg QP: 16.28 size: 177779
    x264 info: frame P: 53308 Avg QP: 18.21 size: 89139
    x264 info: frame B: 139883 Avg QP: 19.74 size: 35926
    Unique ID : 245719004360726859819972266865580990621 (0xB8DBC2435C321F50A10FE9DE7BA2609D)
    Complete name : D: TempNNMХоббс и Шоу.3D.2019.1080p.FS.mkv
    Format : Matroska
    Format version : Version 4/Version 2
    File size : 10.5 GiB
    Duration : 2h 16mn
    Overall bit rate : 11.0 Mbps
    Movie name : HOBBS_AND_SHOW_3DRMX_BLUEBIRD.Title0
    Encoded date : UTC 2019-11-16 04: 15: 37
    Writing application : mkvmerge v9.8.0 (\'Kuglblids\') 64bit
    Writing library : Lavf57.71.100
    Video
    ID : 1
    Format : AVC
    Format/Info : Advanced Video Codec
    Format profile : High@L4.1
    Format settings, CABAC : Yes
    Format settings, ReFrames : 4 frames
    Codec ID : V_MPEG4/ISO/AVC
    Duration : 2h 16mn
    Bit rate : 10 000 Kbps
    Width : 1 920 pixels
    Height : 1 080 pixels
    Display aspect ratio : 16: 9
    Frame rate mode : Constant
    Frame rate : 23.976 fps
    Color space : YUV
    Chroma subsampling : 4: 2: 0
    Bit depth : 8 bits
    Scan type : Progressive
    Bits/(Pixel*Frame) : 0.201
    Stream size : 9.28 GiB (88%)
    Writing library : x264 core 157 r2935 545de2f
    Encoding settings : cabac=1/ref=4/deblock=1: -3: -3/analyse=0x3: 0x113/me=umh/subme=10/psy=1/psy_rd=1.05: 0.10/mixed_ref=1/me_range=24/chroma_me=1/trellis=2/8x8dct=1/cqm=0/deadzone=21, 11/fast_pskip=0/chroma_qp_offset=-3/threads=5/lookahead_threads=1/sliced_threads=0/nr=0/decimate=0/interlaced=0/bluray_compat=0/constrained_intra=0/bframes=6/b_pyramid=2/b_adapt=2/b_bias=0/direct=1/weightb=1/open_gop=0/weightp=2/keyint=240/keyint_min=24/scenecut=40/intra_refresh=0/rc=2pass/mbtree=0/bitrate=10000/ratetol=1.0/qcomp=0.70/qpmin=3/qpmax=69/qpstep=4/cplxblur=20.0/qblur=0.5/ip_ratio=1.40/pb_ratio=1.30/aq=2: 1.00
    Default : Yes
    Forced : No
    Audio #1
    ID : 2
    Format : AC-3
    Format/Info : Audio Coding 3
    Mode extension : CM (complete main)
    Format settings, Endianness : Big
    Codec ID : A_AC3
    Duration : 2h 16mn
    Bit rate mode : Constant
    Bit rate : 640 Kbps
    Channel(s) : 6 channels
    Channel positions : Front: L C R, Side: L R, LFE
    Sampling rate : 48.0 KHz
    Bit depth : 16 bits
    Compression mode : Lossy
    Stream size : 626 MiB (6%)
    Language : Russian
    Default : Yes
    Forced : No
    Audio #2
    ID : 3
    Format : AC-3
    Format/Info : Audio Coding 3
    Mode extension : CM (complete main)
    Format settings, Endianness : Big
    Codec ID : A_AC3
    Duration : 2h 16mn
    Bit rate mode : Constant
    Bit rate : 448 Kbps
    Channel(s) : 6 channels
    Channel positions : Front: L C R, Side: L R, LFE
    Sampling rate : 48.0 KHz
    Bit depth : 16 bits
    Compression mode : Lossy
    Stream size : 438 MiB (4%)
    Language : English
    Default : No
    Forced : No
    Text #1
    ID : 4
    Format : UTF-8
    Codec ID : S_TEXT/UTF8
    Codec ID/Info : UTF-8 Plain Text
    Language : Russian
    Default : Yes
    Forced : No
    Text #2
    ID : 5
    Format : UTF-8
    Codec ID : S_TEXT/UTF8
    Codec ID/Info : UTF-8 Plain Text
    Language : English
    Default : No
    Forced : No
    Menu
    00: 00: 00.000 : : (01)00: 00: 00: 000
    00: 04: 58.130 : : (02)00: 04: 58: 130
    00: 13: 43.489 : : (03)00: 13: 43: 489
    00: 19: 21.451 : : (04)00: 19: 21: 451
    00: 26: 45.979 : : (05)00: 26: 45: 979
    00: 35: 41.514 : : (06)00: 35: 41: 514
    00: 40: 13.244 : : (07)00: 40: 13: 244
    00: 46: 22.027 : : (08)00: 46: 22: 027
    00: 51: 34.215 : : (09)00: 51: 34: 215
    00: 57: 51.800 : : (10)00: 57: 51: 800
    01: 01: 53.251 : : (11)01: 01: 53: 251
    01: 08: 45.162 : : (12)01: 08: 45: 162
    01: 14: 22.832 : : (13)01: 14: 22: 832
    01: 19: 48.073 : : (14)01: 19: 48: 073
    01: 24: 59.260 : : (15)01: 24: 59: 260
    01: 32: 58.197 : : (16)01: 32: 58: 197
    01: 38: 48.921 : : (17)01: 38: 48: 921
    01: 46: 32.969 : : (18)01: 46: 32: 969
    01: 53: 29.594 : : (19)01: 53: 29: 594
    02: 01: 14.809 : : (20)02: 01: 14: 809
    02: 15: 55.980 : : (21)02: 15: 55: 980

    Скриншоты для ознакомления



    Все одноименные релизы в Клубе
    Время раздачи: 24/7 (до появления первых 3-5 скачавших)

    Форсаж: Хоббс и Шоу / Fast & Furious Presents: Hobbs & Shaw (2019) BDRip 3D [H.264 / 1080p] [вертикальная анаморфная стереопара] [hand made 16:9] торрент скачать бесплатно
    Рейтинг →
     (голосов: 1, оценка 5/5, голосовать можно 1 раз )

    Другие торренты по теме:



      Комментарии (0):

      Информация

      Информация

        Посетители, находящиеся в группе Гости, не могут оставлять комментарии в данной новости.

        ↓ Меню




        Популярное

        Пентхаус с видом на север / Penthouse North (2013) BDRip [H.264 / 1080p-LQ] [hand-made change colored space]

        (скачиваний: 15)
        Фантастические твари: Преступления Грин-де-Вальда / Fantastic Beasts: The Crimes of Grindelwald (2018) BDRip 3D [H.264 / 1080p] [вертикальная анаморфная стереопара] [hand made 16:9]

        (скачиваний: 9)
        Фантастические твари: Преступления Грин-де-Вальда / Fantastic Beasts: The Crimes of Grindelwald (2018) BDRip [H.264 / 1080p] [hand made 16:9]

        (скачиваний: 9)
        Звёздные войны: Буря в стакане / Star Wars: Storm in the Glass (2004) HDRip [H.264 / 1080p] [Пародия]

        (скачиваний: 9)
        Аквамен / Aquaman (2018) BDRip 3D [H.264 / 1080p] [вертикальная анаморфная стереопара] [hand made 16:9]

        (скачиваний: 7)
        Мир Дикого запада 2 / Westworld (2018) AC3 5.1(сезон 2, серии 1 из 10) [hand made]

        (скачиваний: 6)
        Владимир Кузьмин - О чем то лучшем Live (2004) от ALEXnROCK WEBRip [H.264 / 1080p-LQ] [upscale]

        (скачиваний: 5)
        Сборник клипов - Блатной хит - Видеоколлекция от ALEXnROCK часть 1 (2020) WEBRip [H.264 / 1080p-LQ] [upscale]

        (скачиваний: 5)
        Гемини / Gemini Man (2019) HDRip [H.265] [10-bit] [60 fps]

        (скачиваний: 4)
        Europe - Live in Sweden 1986 (The Final Countdown Tour) от ALEXnROCK (2006) DVDRip [H.264 / 1080p-LQ][upscale]

        (скачиваний: 4)