ВАЖНО! Сайт скоро заблокируют! Подписывайся на наш канал в Telegram https://t.me/torrentok и получи доступ к торрентам без ограничений!
.
Авторизация | Регистрация
bitok.xyz
Торрент скачать бесплатно Другое торрент скачать Забытая ложь / Un mensonge oublie (2018) HDTVRip [MVO] [AD] торрент скачать бесплатно


    Забытая ложь / Un mensonge oublie (2018) HDTVRip [MVO] [AD] торрент скачать бесплатно

    Дата: 20-11-2019, 05:01 | .torrent скачали: 3

    Забытая ложь / Un mensonge oublie (2018) HDTVRip [MVO] [AD]Производство: Франция, Бельгия/PM SA, France Télévisions, Nexus Factory
    Жанр: Триллер, драма, криминал, детектив
    Режиссер: Эрик Дюре

    Актеры
    Melodie Raymond Dejoie, Тео Фриле, Сара Мартинс, Альбан Омар, Robert Rousselle, Антуан Дюлери, Christophe Chalufour, Thierry Chenavaud, Лорен Шпильфогель, Мартин Дотей

    Описание

    Фильм основан на реальных событиях. За неделю до свадьбы молодая женщина Агата Плишар утонула в реке Крёз. Полиция считает это несчастным случаем, но ее жених Феликс Брикур убежден, что его невесту убили. Он решает провести собственное расследование, несмотря на недовольство своей семьи, знатной династии этого региона. Видя убежденность Феликса, испектор полиции Кароль Левассер решает выяснить правду.

    Продолжительность: 01: 33: 26
    Качество видео: HDTVRip
    Перевод: Многоголосый закадровый, профессиональный (Синема УС)
    Субтитры: Отсутствуют
    Реклама: Присутствует баннер.
    Видео: XviD, 720x400, ~1671 Kbps
    Аудио: AC-3, 2 ch, 384 Kbps
    Общее
    Полное имя : D: NNMЗабытая ложьUn.mensonge.oublie.2018.HDTVRip.avi
    Формат : AVI
    Формат/Информация : Audio Video Interleave
    Профиль формата : OpenDML
    Размер файла : 1, 35 Гбайт
    Продолжительность : 1 ч. 33 м.
    Общий поток : 2068 Кбит/сек
    Видео
    Идентификатор : 0
    Формат : MPEG-4 Visual
    Профиль формата : Advanced Simple@L5
    Настройки формата : BVOP2/Custom Matrix
    Параметр BVOP формата : 2
    Параметр QPel формата : Нет
    Параметр GMC формата : Без точки перехода
    Параметр матрицы формата : Выборочная
    Идентификатор кодека : XVID
    Идентификатор кодека/Подсказка : XviD
    Продолжительность : 1 ч. 33 м.
    Битрейт : 1671 Кбит/сек
    Ширина : 720 пикселей
    Высота : 400 пикселей
    Соотношение сторон : 16: 9
    Частота кадров : 23, 976 (24000/1001) кадра/сек
    Цветовое пространство : YUV
    Субдискретизация насыщенности : 4: 2: 0
    Битовая глубина : 8 бит
    Тип развёртки : Прогрессивная
    Метод сжатия : С потерями
    Бит/(Пиксели*Кадры) : 0.242
    Размер потока : 1, 09 Гбайт (81%)
    Библиотека кодирования : XviD 1.2.1 (UTC 2008-12-04)
    Аудио
    Идентификатор : 1
    Формат : AC-3
    Формат/Информация : Audio Coding 3
    Коммерческое название : Dolby Digital
    Идентификатор кодека : 2000
    Продолжительность : 1 ч. 33 м.
    Вид битрейта : Постоянный
    Битрейт : 384 Кбит/сек
    Каналы : 2 канала
    ChannelLayout : L R
    Частота : 48, 0 КГц
    Частота кадров : 31, 250 кадров/сек (1536 SPF)
    Битовая глубина : 16 бит
    Метод сжатия : С потерями
    Размер потока : 257 Мбайт (19%)
    Выравнивание : Соединение по промежуткам
    Продолжительность промежутка : 32 мс. (0, 77 видеокадр)
    ServiceKind/String : Complete Main

    Скриншоты для ознакомления



    Все одноименные релизы в Клубе Время раздачи: 24/7 (до появления первых 3-5 скачавших)

    Забытая ложь / Un mensonge oublie (2018) HDTVRip [MVO] [AD] торрент скачать бесплатно
    Рейтинг →
     (голосов: 1, оценка 4/5, голосовать можно 1 раз )

    Другие торренты по теме:

  • Забытая ложь / Un mensonge oublie (2018) HDTVRip [H.264 / 720p-LQ] [MVO] [AD]


    • Комментарии (0):

      Информация

      Информация

        Посетители, находящиеся в группе Гости, не могут оставлять комментарии в данной новости.