Подписывайся на наш канал в Telegram https://t.me/torrentok и получи доступ к торрентам без ограничений!
.
Авторизация | Регистрация
bitok.xyz
Торрент скачать бесплатно Другое торрент скачать Забытая ложь / Un mensonge oublie (2018) HDTVRip [H.264 / 720p-LQ] [MVO] [AD] торрент скачать бесплатно


    Забытая ложь / Un mensonge oublie (2018) HDTVRip [H.264 / 720p-LQ] [MVO] [AD] торрент скачать бесплатно

    Дата: 20-11-2019, 05:01 | .torrent скачали: 1

    Забытая ложь / Un mensonge oublie (2018) HDTVRip [H.264 / 720p-LQ] [MVO] [AD]Производство: Франция, Бельгия/PM SA, France Télévisions, Nexus Factory
    Жанр: Триллер, драма, криминал, детектив
    Режиссер: Эрик Дюре

    Актеры
    Melodie Raymond Dejoie, Тео Фриле, Сара Мартинс, Альбан Омар, Robert Rousselle, Антуан Дюлери, Christophe Chalufour, Thierry Chenavaud, Лорен Шпильфогель, Мартин Дотей

    Описание

    Фильм основан на реальных событиях. За неделю до свадьбы молодая женщина Агата Плишар утонула в реке Крёз. Полиция считает это несчастным случаем, но ее жених Феликс Брикур убежден, что его невесту убили. Он решает провести собственное расследование, несмотря на недовольство своей семьи, знатной династии этого региона. Видя убежденность Феликса, испектор полиции Кароль Левассер решает выяснить правду.

    Продолжительность: 01: 33: 26
    Качество видео: HDTVRip
    Перевод: Многоголосый закадровый, профессиональный (Синема УС)
    Субтитры: Отсутствуют
    Реклама: Присутствует баннер.
    Видео: AVC/H.264, 1280x720, ~5245 Kbps
    Аудио: AC-3, 2 ch, 384 Kbps
    Общее
    Полное имя : D: NNMЗабытая ложьUn.Mensonge.Oublie.2018.HDTVRip.720p-LQ.mkv
    Формат : Matroska
    Версия формата : Version 2
    Размер файла : 3, 75 Гбайт
    Продолжительность : 1 ч. 33 м.
    Режим общего битрейта : Постоянный
    Общий поток : 5747 Кбит/сек
    Программа кодирования : libmatroska 1.4.1
    Библиотека кодирования : SolveigMM Matroska Muxer Version 1.0.1502.31
    Видео
    Идентификатор : 1
    Формат : AVC
    Формат/Информация : Advanced Video Codec
    Профиль формата : High@L4.1
    Настройки формата : CABAC/4 Ref Frames
    Параметр CABAC формата : Да
    Параметр RefFrames формата : 4 кадра
    Идентификатор кодека : V_MPEG4/ISO/AVC
    Продолжительность : 1 ч. 33 м.
    Вид битрейта : Постоянный
    Битрейт : 5249 Кбит/сек
    Номинальный битрейт : 6000 Кбит/сек/6000 Кбит/сек
    Ширина : 1280 пикселей
    Высота : 720 пикселей
    Соотношение сторон : 16: 9
    Режим частоты кадров : Постоянный
    Частота кадров : 23, 976 (24000/1001) кадра/сек
    Стандарт вещания : Component
    Цветовое пространство : YUV
    Субдискретизация насыщенности : 4: 2: 0
    Битовая глубина : 8 бит
    Тип развёртки : Прогрессивная
    Бит/(Пиксели*Кадры) : 0.238
    Размер потока : 3, 43 Гбайт (91%)
    Default : Нет
    Forced : Нет
    Цветовой диапазон : Limited
    Основные цвета : BT.709
    Характеристики трансфера : BT.709
    Коэффициенты матрицы : BT.709
    Аудио
    Идентификатор : 2
    Формат : AC-3
    Формат/Информация : Audio Coding 3
    Коммерческое название : Dolby Digital
    Идентификатор кодека : A_AC3
    Продолжительность : 1 ч. 33 м.
    Вид битрейта : Постоянный
    Битрейт : 384 Кбит/сек
    Каналы : 2 канала
    ChannelLayout : L R
    Частота : 48, 0 КГц
    Частота кадров : 31, 250 кадров/сек (1536 SPF)
    Битовая глубина : 16 бит
    Метод сжатия : С потерями
    Размер потока : 257 Мбайт (7%)
    Язык : Russian
    ServiceKind/String : Complete Main
    Default : Нет
    Forced : Нет

    Скриншоты для ознакомления



    Все одноименные релизы в Клубе Время раздачи: 24/7 (до появления первых 3-5 скачавших)

    Забытая ложь / Un mensonge oublie (2018) HDTVRip [H.264 / 720p-LQ] [MVO] [AD] торрент скачать бесплатно
    Рейтинг →
     (голосов: 1, оценка 3/5, голосовать можно 1 раз )

    Другие торренты по теме:

  • Забытая ложь / Un mensonge oublie (2018) HDTVRip [MVO] [AD]


    • Комментарии (0):

      Информация

      Информация

        Посетители, находящиеся в группе Гости, не могут оставлять комментарии в данной новости.