Подписывайся на наш канал в Telegram https://t.me/torrentok и получи доступ к торрентам без ограничений!
.
Авторизация | Регистрация
bitok.xyz
Торрент скачать бесплатно Другое торрент скачать Рэмбо: Последняя кровь / Rambo: Last Blood (2019) BDRip [H.264 / 1080p-LQ] [Teatrical Cut] [hand made 16:9] торрент скачать бесплатно


    Рэмбо: Последняя кровь / Rambo: Last Blood (2019) BDRip [H.264 / 1080p-LQ] [Teatrical Cut] [hand made 16:9] торрент скачать бесплатно

    Дата: 13-12-2019, 05:00 | .torrent скачали: 14

    Рэмбо: Последняя кровь / Rambo: Last Blood (2019) BDRip [H.264 / 1080p-LQ] [Teatrical Cut] [hand made 16:9]Производство: США, Испания, Болгария Balboa Productions, Campbell Grobman Films, Dadi Film Group
    Жанр: боевик, триллер, приключения
    Режиссер: Адриан Грюнберг

    Актеры
    Сильвестр Сталлоне, Пас Вега, Ивет Монреаль, Луис Мэндилор, Оскар Хаенада, Шила Шах, Серхио Перис-Менчета, Джессика Мэдсен, Хоакин Косио, Адриана Барраса, Джени Ким, Паскасио Лопес, Александр Димитров

    Описание

    Он хранил секреты всю жизнь, но пришло время взглянуть в глаза прошлому. В последний раз собраться и стать безжалостной машиной для убийства. Рэмбо снова встанет на смертельно опасный путь — путь мести, который ему придется пройти до конца.

    Возраст: 18+ (зрителям, достигшим 18 лет. запрещено для детей)
    Рейтинг MPAA: R (лицам до 17 лет обязательно присутствие взрослого)
    Дата российской премьеры: 19 сентября 2019
    Релиз от: SergeyAms
    Продолжительность: 01: 29: 28
    Качество видео: BDRip
    Перевод: Дублированный (iTunes)
    Субтитры: Английский
    Видео: AVC/H.264, 1920x1080, ~5000 kbps
    Аудио #1: AC3, 6 ch, 384 Kbps - русский
    Аудио #2: AC3, 6 ch, 640 Kbps - английский
    x264 info: frame I: 967 Avg QP: 18.10 size: 116101
    x264 info: frame P: 34489 Avg QP: 19.57 size: 49986
    x264 info: frame B: 93257 Avg QP: 21.15 size: 15863
    Unique ID : 175236749050239328693558662351100643254 (0x83D55EC7BD7A2895B74E1B90087107B6)
    Complete name : D: TempNNMПоследняя кровь.2019.1080p.FS.mkv
    Format : Matroska
    Format version : Version 4/Version 2
    File size : 3.76 GiB
    Duration : 1h 29mn
    Overall bit rate : 6 017 Kbps
    Movie name : Рэмбо: Последняя кровь_Rambo: Last Blood (2019) BDRemux.H.264.1080p.NNMClub
    Encoded date : UTC 2019-12-12 12: 25: 52
    Writing application : mkvmerge v9.8.0 (\'Kuglblids\') 64bit
    Writing library : libebml v1.3.4 + libmatroska v1.4.5
    Video
    ID : 1
    Format : AVC
    Format/Info : Advanced Video Codec
    Format profile : High@L4.1
    Format settings, CABAC : Yes
    Format settings, ReFrames : 4 frames
    Codec ID : V_MPEG4/ISO/AVC
    Duration : 1h 29mn
    Bit rate : 5 000 Kbps
    Width : 1 920 pixels
    Height : 1 080 pixels
    Display aspect ratio : 16: 9
    Frame rate mode : Constant
    Frame rate : 23.976 fps
    Color space : YUV
    Chroma subsampling : 4: 2: 0
    Bit depth : 8 bits
    Scan type : Progressive
    Bits/(Pixel*Frame) : 0.101
    Stream size : 3.05 GiB (81%)
    Title : Рэмбо: Последняя кровь_Rambo: Last Blood (2019) BDRemux.H.264.1080p.NNMClub
    Writing library : x264 core 157 r2935 545de2f
    Encoding settings : cabac=1/ref=4/deblock=1: -2: -2/analyse=0x3: 0x113/me=umh/subme=11/psy=1/psy_rd=1.05: 0.10/mixed_ref=1/me_range=48/chroma_me=1/trellis=2/8x8dct=1/cqm=0/deadzone=21, 11/fast_pskip=0/chroma_qp_offset=-3/threads=5/lookahead_threads=1/sliced_threads=0/nr=0/decimate=0/interlaced=0/bluray_compat=0/constrained_intra=0/bframes=8/b_pyramid=2/b_adapt=2/b_bias=0/direct=1/weightb=1/open_gop=0/weightp=2/keyint=240/keyint_min=24/scenecut=40/intra_refresh=0/rc=2pass/mbtree=0/bitrate=5000/ratetol=1.0/qcomp=0.70/qpmin=3/qpmax=69/qpstep=4/cplxblur=20.0/qblur=0.5/ip_ratio=1.40/pb_ratio=1.30/aq=2: 1.00
    Language : English
    Default : Yes
    Forced : No
    Audio #1
    ID : 2
    Format : AC-3
    Format/Info : Audio Coding 3
    Mode extension : CM (complete main)
    Format settings, Endianness : Big
    Codec ID : A_AC3
    Duration : 1h 29mn
    Bit rate mode : Constant
    Bit rate : 384 Kbps
    Channel(s) : 6 channels
    Channel positions : Front: L C R, Side: L R, LFE
    Sampling rate : 48.0 KHz
    Bit depth : 16 bits
    Compression mode : Lossy
    Stream size : 246 MiB (6%)
    Title : Дублированный (iTunes)
    Language : Russian
    Default : Yes
    Forced : No
    Audio #2
    ID : 3
    Format : AC-3
    Format/Info : Audio Coding 3
    Mode extension : CM (complete main)
    Format settings, Endianness : Big
    Codec ID : A_AC3
    Duration : 1h 29mn
    Bit rate mode : Constant
    Bit rate : 640 Kbps
    Channel(s) : 6 channels
    Channel positions : Front: L C R, Side: L R, LFE
    Sampling rate : 48.0 KHz
    Bit depth : 16 bits
    Compression mode : Lossy
    Stream size : 410 MiB (11%)
    Language : English
    Default : No
    Forced : No
    Text
    ID : 4
    Format : UTF-8
    Codec ID : S_TEXT/UTF8
    Codec ID/Info : UTF-8 Plain Text
    Title : Full
    Language : English
    Default : No
    Forced : No
    Menu
    00: 00: 00.000 : : Chapter 01
    00: 04: 50.081 : : Chapter 02
    00: 10: 59.158 : : Chapter 03
    00: 14: 35.791 : : Chapter 04
    00: 22: 39.024 : : Chapter 05
    00: 25: 11.718 : : Chapter 06
    00: 31: 24.382 : : Chapter 07
    00: 36: 12.253 : : Chapter 08
    00: 41: 08.299 : : Chapter 09
    00: 46: 37.878 : : Chapter 10
    00: 49: 29.967 : : Chapter 11
    00: 55: 04.926 : : Chapter 12
    01: 00: 08.229 : : Chapter 13
    01: 05: 57.495 : : Chapter 14
    01: 12: 06.280 : : Chapter 15
    01: 17: 47.287 : : Chapter 16

    Скриншоты для ознакомления



    Все одноименные релизы в Клубе
    Время раздачи: 24/7/365(6) (до появления первых 3-5 скачавших)

    Рэмбо: Последняя кровь / Rambo: Last Blood (2019) BDRip [H.264 / 1080p-LQ] [Teatrical Cut] [hand made 16:9] торрент скачать бесплатно
    Рейтинг →
     (голосов: 1, оценка 5/5, голосовать можно 1 раз )

    Другие торренты по теме:

  • Рэмбо: Последняя кровь / Rambo: Last Blood (2019) TS [H.264 / 720p-LQ] [AD]
  • Рэмбо: Последняя кровь / Rambo: Last Blood (2019) WEBRip [UKR, EN / KOR Sub] [Line]
  • Рэмбо: Последняя кровь / Rambo: Last Blood (2019) WEBRip [H.264 / 1080p-LQ] [UKR, EN / KOR, ENG Sub] [Line]
  • Рэмбо: Последняя кровь / Rambo: Last Blood (2019) HDRip [Line, AD]
  • Рэмбо: Последняя кровь / Rambo: Last Blood (2019) BDRip [H.264 / 720p-LQ] [Line, AD]
  • Рэмбо: Последняя кровь / Rambo: Last Blood (2019) BDRip [H.264 / 1080p-LQ] [Line, AD]
  • Рэмбо: Последняя кровь / Rambo: Last Blood (2019) BDRip [H.264 / 720p] [PR]
  • Рэмбо: Последняя кровь / Rambo: Last Blood (2019) BDRip [H.264 / 1080p] [PR]


    • Комментарии (0):

      Информация

      Информация

        Посетители, находящиеся в группе Гости, не могут оставлять комментарии в данной новости.