ВАЖНО! Сайт скоро заблокируют! Подписывайся на наш канал в Telegram https://t.me/torrentok и получи доступ к торрентам без ограничений!
.
Авторизация | Регистрация
bitok.xyz
Торрент скачать бесплатно Другое торрент скачать Малефисента: Владычица тьмы / Maleficent: Mistress of Evil (2019) BDRip [H.264 / 1080p-LQ] [hand made 16:9] торрент скачать бесплатно


    Малефисента: Владычица тьмы / Maleficent: Mistress of Evil (2019) BDRip [H.264 / 1080p-LQ] [hand made 16:9] торрент скачать бесплатно

    Дата: 4-01-2020, 05:00 | .torrent скачали: 5

    Малефисента: Владычица тьмы / Maleficent: Mistress of Evil (2019) BDRip [H.264 / 1080p-LQ] [hand made 16:9]Производство: США, Великобритания, Невафильм, Roth Films, Walt Disney Pictures
    Жанр: Фэнтези, Приключения, Семейный
    Режиссер: Хоаким Роннинг

    Актеры
    Анджелина Джоли, Элль Фэннинг, Харрис Дикинсон, Мишель Пфайффер, Сэм Райли, Чиветел Эджиофор, Эд Скрейн, Роберт Линдсей, Дэвид Гяси, Дженн Мюррэй

    Описание

    Действие происходит через несколько лет после того, как Малефисента наложила злые чары на принцессу Аврору. Фильм рассказывает про сложную взаимосвязь между тёмной феей и будущей королевой, о новых союзниках и противниках в деле защиты волшебного леса и магических существах, которые в нем обитают.

    Возраст: 6+ (зрителям, достигшим 6 лет)
    Рейтинг MPAA: PG (рекомендуется присутствие родителей)
    Дата мировой премьеры: 16 октября 2019
    Дата российской премьеры: 17 октября 2019, WDSSPR
    Релиз от: SergeyAms
    Продолжительность: 01: 58: 51
    Качество видео: BDRip
    Перевод: Дублированный (iTunes)
    Субтитры: Русские (полные), английские (полные)
    Видео: AVC/H.264, 1920x1080, ~6 Mbps
    Аудио #1: АС3, 6 ch, 384 Kbps - русский
    Аудио #2: DTS, 6 ch, 768 Kbps - английский
    Unique ID : 200537599116636585040145422350097951365 (0x96DE22FF851CF3B393836FA21F3DAA85)
    Complete name : D: TempNNMМалефисента.2019.1080p.FS.mkv
    Format : Matroska
    Format version : Version 4/Version 2
    File size : 5.94 GiB
    Duration : 1h 58mn
    Overall bit rate : 7 154 Kbps
    Encoded date : UTC 2020-01-03 12: 59: 31
    Writing application : mkvmerge v9.8.0 (\'Kuglblids\') 64bit
    Writing library : Lavf57.71.100
    Video
    ID : 1
    Format : AVC
    Format/Info : Advanced Video Codec
    Format profile : High@L4.1
    Format settings, CABAC : Yes
    Format settings, ReFrames : 4 frames
    Codec ID : V_MPEG4/ISO/AVC
    Duration : 1h 58mn
    Bit rate : 6 000 Kbps
    Width : 1 920 pixels
    Height : 1 080 pixels
    Display aspect ratio : 16: 9
    Frame rate mode : Constant
    Frame rate : 23.976 fps
    Color space : YUV
    Chroma subsampling : 4: 2: 0
    Bit depth : 8 bits
    Scan type : Progressive
    Bits/(Pixel*Frame) : 0.121
    Stream size : 4.86 GiB (82%)
    Writing library : x264 core 157 r2935 545de2f
    Encoding settings : cabac=1/ref=4/deblock=1: -3: -3/analyse=0x3: 0x113/me=umh/subme=9/psy=1/psy_rd=1.05: 0.10/mixed_ref=1/me_range=24/chroma_me=0/trellis=2/8x8dct=1/cqm=0/deadzone=21, 11/fast_pskip=0/chroma_qp_offset=-3/threads=5/lookahead_threads=1/sliced_threads=0/nr=0/decimate=0/interlaced=0/bluray_compat=0/constrained_intra=0/bframes=6/b_pyramid=2/b_adapt=2/b_bias=0/direct=1/weightb=1/open_gop=0/weightp=2/keyint=240/keyint_min=24/scenecut=40/intra_refresh=0/rc=2pass/mbtree=0/bitrate=6000/ratetol=1.0/qcomp=0.70/qpmin=3/qpmax=69/qpstep=4/cplxblur=20.0/qblur=0.5/ip_ratio=1.40/pb_ratio=1.30/aq=2: 1.00
    Default : Yes
    Forced : No
    Audio #1
    ID : 2
    Format : AC-3
    Format/Info : Audio Coding 3
    Mode extension : CM (complete main)
    Format settings, Endianness : Big
    Codec ID : A_AC3
    Duration : 1h 58mn
    Bit rate mode : Constant
    Bit rate : 384 Kbps
    Channel(s) : 6 channels
    Channel positions : Front: L C R, Side: L R, LFE
    Sampling rate : 48.0 KHz
    Bit depth : 16 bits
    Compression mode : Lossy
    Stream size : 326 MiB (5%)
    Language : Russian
    Default : Yes
    Forced : No
    Audio #2
    ID : 3
    Format : DTS
    Format/Info : Digital Theater Systems
    Mode : 16
    Format settings, Endianness : Big
    Codec ID : A_DTS
    Duration : 1h 58mn
    Bit rate mode : Constant
    Bit rate : 768 Kbps
    Channel(s) : 6 channels
    Channel positions : Front: L C R, Side: L R, LFE
    Sampling rate : 48.0 KHz
    Bit depth : 16 bits
    Compression mode : Lossy
    Stream size : 653 MiB (11%)
    Language : English
    Default : No
    Forced : No
    Text #1
    ID : 4
    Format : UTF-8
    Codec ID : S_TEXT/UTF8
    Codec ID/Info : UTF-8 Plain Text
    Language : Russian
    Default : Yes
    Forced : No
    Text #2
    ID : 5
    Format : UTF-8
    Codec ID : S_TEXT/UTF8
    Codec ID/Info : UTF-8 Plain Text
    Language : English
    Default : No
    Forced : No

    Скриншоты для ознакомления



    Все одноименные релизы в Клубе
    Время раздачи: 24/7 (до появления первых 3-5 скачавших)

    Малефисента: Владычица тьмы / Maleficent: Mistress of Evil (2019) BDRip [H.264 / 1080p-LQ] [hand made 16:9] торрент скачать бесплатно
    Рейтинг →
     (голосов: 1, оценка 4/5, голосовать можно 1 раз )

    Другие торренты по теме:

  • Малефисента: Владычица тьмы / Maleficent: Mistress of Evil (2019) CAMRip [H.264 / 720p-LQ] [AD]
  • Малефисента: Владычица тьмы / Maleficent: Mistress of Evil (2019) WEB-DLRip
  • Малефисента: Владычица тьмы / Maleficent: Mistress of Evil (2019) WEB-DL [H.264 / 720p]
  • Малефисента: Владычица тьмы / Maleficent: Mistress of Evil (2019) WEB-DL [H.264 / 1080p-LQ]
  • Малефисента: Владычица тьмы / Maleficent: Mistress of Evil (2019) WEB-DLRip [H.264]
  • Малефисента: Владычица тьмы / Maleficent: Mistress of Evil (2019) WEB-DL [H.264 / 1080p]
  • Малефисента: Владычица тьмы / Maleficent: Mistress of Evil (2019) WEB-DLRip [H.264]
  • Малефисента: Владычица тьмы / Maleficent: Mistress of Evil (2019) BDRip [H.264 / 1080p] [PR]


    • Комментарии (0):

      Информация

      Информация

        Посетители, находящиеся в группе Гости, не могут оставлять комментарии в данной новости.