.
Авторизация | Регистрация
bitok.xyz
» » Хорошие мальчики / Good Boys (2019) BDRip [H.264 / 1080p-LQ] [hand made 16:9] торрент скачать бесплатно


    Хорошие мальчики / Good Boys (2019) BDRip [H.264 / 1080p-LQ] [hand made 16:9] торрент скачать бесплатно

    Дата: 14-01-2020, 05:00 | .torrent скачали: 0

    Хорошие мальчики / Good Boys (2019) BDRip [H.264 / 1080p-LQ] [hand made 16:9]Производство: США/Good Universe, Point Grey Pictures, Universal Pictures
    Жанр: Комедия, приключения
    Режиссер: Джин Ступницки

    Актеры
    Джейкоб Тремблей, Кит Л. Уильямс, Брэйди Нун, Молли Гордон, Мидори Френсис, Исаак Ванг, Милли Дэвис, Джош Барклай Карас, Уилл Форте, Mariessa Portelance

    Описание

    История троих друзей-шестиклассников, планирующих посетить крутую вечеринку. Но прежде они должны хорошенько подготовиться, чтобы не ударить в грязь лицом. Так начинается безумное путешествие по долине Сан-Фернандо, в котором надо вернуть наркотики, украсть пиво и починить сломанного дрона — все это нужно сделать, пока родители не вернулись домой.

    Возраст: 16+ (зрителям, достигшим 16 лет)
    Рейтинг MPAA: R (лицам до 17 лет обязательно присутствие взрослого)
    Дата мировой премьеры: 11 марта 2019
    Релиз от: SergeyAms
    Продолжительность: 01: 29: 38
    Качество видео: BDRip
    Перевод: Дублированный (DVD R2)
    Субтитры: Русские (форс., полные), английские (полные)
    Видео: AVC/H.264, 1920x1080, ~5 Mbps
    Аудио #1: AC3, 6 ch, 384 Kbps - русский
    Аудио #2: AC3, 6 ch, 640 Kbps - английский
    x264 info: frame I: 1606 Avg QP: 18.45 size: 190805
    x264 info: frame P: 32418 Avg QP: 19.80 size: 52048
    x264 info: frame B: 94916 Avg QP: 21.06 size: 14341
    Unique ID : 224543986913593335703454308936985575947 (0xA8ED994C751D2A608897D0F30F4B820B)
    Complete name : D: TempNNMGood.Boys.2019.1080p.FS.mkv
    Format : Matroska
    Format version : Version 4/Version 2
    File size : 3.77 GiB
    Duration : 1h 29mn
    Overall bit rate : 6 017 Kbps
    Encoded date : UTC 2020-01-13 07: 56: 29
    Writing application : mkvmerge v9.8.0 (\'Kuglblids\') 64bit
    Writing library : libebml v1.3.4 + libmatroska v1.4.5
    Video
    ID : 1
    Format : AVC
    Format/Info : Advanced Video Codec
    Format profile : High@L4.1
    Format settings, CABAC : Yes
    Format settings, ReFrames : 4 frames
    Codec ID : V_MPEG4/ISO/AVC
    Duration : 1h 29mn
    Bit rate : 5 000 Kbps
    Width : 1 920 pixels
    Height : 1 080 pixels
    Display aspect ratio : 16: 9
    Frame rate mode : Constant
    Frame rate : 23.976 fps
    Color space : YUV
    Chroma subsampling : 4: 2: 0
    Bit depth : 8 bits
    Scan type : Progressive
    Bits/(Pixel*Frame) : 0.101
    Stream size : 3.05 GiB (81%)
    Writing library : x264 core 157 r2935 545de2f
    Encoding settings : cabac=1/ref=4/deblock=1: -3: -3/analyse=0x3: 0x113/me=umh/subme=10/psy=1/psy_rd=1.05: 0.10/mixed_ref=1/me_range=24/chroma_me=1/trellis=2/8x8dct=1/cqm=0/deadzone=21, 11/fast_pskip=0/chroma_qp_offset=-3/threads=5/lookahead_threads=1/sliced_threads=0/nr=0/decimate=0/interlaced=0/bluray_compat=0/constrained_intra=0/bframes=7/b_pyramid=2/b_adapt=2/b_bias=0/direct=1/weightb=1/open_gop=0/weightp=2/keyint=240/keyint_min=24/scenecut=40/intra_refresh=0/rc=2pass/mbtree=0/bitrate=5000/ratetol=1.0/qcomp=0.70/qpmin=3/qpmax=69/qpstep=4/cplxblur=20.0/qblur=0.5/ip_ratio=1.40/pb_ratio=1.30/aq=2: 1.00
    Language : English
    Default : Yes
    Forced : No
    Audio #1
    ID : 2
    Format : AC-3
    Format/Info : Audio Coding 3
    Mode extension : CM (complete main)
    Format settings, Endianness : Big
    Codec ID : A_AC3
    Duration : 1h 29mn
    Bit rate mode : Constant
    Bit rate : 384 Kbps
    Channel(s) : 6 channels
    Channel positions : Front: L C R, Side: L R, LFE
    Sampling rate : 48.0 KHz
    Bit depth : 16 bits
    Compression mode : Lossy
    Stream size : 246 MiB (6%)
    Title : Dub iTunes
    Language : Russian
    Default : Yes
    Forced : No
    Audio #2
    ID : 3
    Format : AC-3
    Format/Info : Audio Coding 3
    Mode extension : CM (complete main)
    Format settings, Endianness : Big
    Codec ID : A_AC3
    Duration : 1h 29mn
    Bit rate mode : Constant
    Bit rate : 640 Kbps
    Channel(s) : 6 channels
    Channel positions : Front: L C R, Side: L R, LFE
    Sampling rate : 48.0 KHz
    Bit depth : 16 bits
    Compression mode : Lossy
    Stream size : 410 MiB (11%)
    Language : English
    Default : No
    Forced : No
    Text #1
    ID : 4
    Format : UTF-8
    Codec ID : S_TEXT/UTF8
    Codec ID/Info : UTF-8 Plain Text
    Title : forced
    Language : Russian
    Default : Yes
    Forced : No
    Text #2
    ID : 5
    Format : UTF-8
    Codec ID : S_TEXT/UTF8
    Codec ID/Info : UTF-8 Plain Text
    Language : Russian
    Default : No
    Forced : No
    Text #3
    ID : 6
    Format : UTF-8
    Codec ID : S_TEXT/UTF8
    Codec ID/Info : UTF-8 Plain Text
    Language : English
    Default : No
    Forced : No
    Menu
    00: 00: 00.000 : : 00: 00: 00.000
    00: 03: 54.025 : : 00: 03: 54.025
    00: 09: 00.165 : : 00: 09: 00.165
    00: 11: 51.169 : : 00: 11: 51.169
    00: 15: 08.658 : : 00: 15: 08.658
    00: 17: 29.839 : : 00: 17: 29.840
    00: 21: 20.696 : : 00: 21: 20.696
    00: 27: 27.646 : : 00: 27: 27.646
    00: 31: 25.675 : : 00: 31: 25.675
    00: 35: 06.103 : : 00: 35: 06.104
    00: 40: 11.868 : : 00: 40: 11.868
    00: 47: 16.208 : : 00: 47: 16.208
    00: 51: 01.183 : : 00: 51: 01.183
    00: 57: 54.388 : : 00: 57: 54.388
    01: 02: 27.953 : : 01: 02: 27.953
    01: 06: 46.544 : : 01: 06: 46.544
    01: 09: 56.901 : : 01: 09: 56.901
    01: 14: 19.497 : : 01: 14: 19.497
    01: 20: 00.796 : : 01: 20: 00.796
    01: 23: 35.427 : : 01: 23: 35.427

    Скриншоты для ознакомления


    Все одноименные релизы в Клубе
    Время раздачи: 24/7 (до появления первых 3-5 скачавших)

    Хорошие мальчики/Good Boys (2019) BDRip [H.264/1080p-LQ] [hand made 16:9]
    Рейтинг →
     (голосов: 1, оценка 4/5, голосовать можно 1 раз )

    Другие торренты по теме:

  • Хорошие мальчики / Good Boys (2019) WEB-DLRip [H.264 / 720p-LQ] [MVO] [AD]
  • Хорошие мальчики / Good Boys (2019) BDRip [H.264 / 1080p]
  • Хорошие мальчики / Good Boys (2019) BDRemux [H.264 / 1080p]
  • Хорошие мальчики / Good Boys (2019) BDRip
  • Хорошие мальчики / Good Boys (2019) BDRip
  • Хорошие мальчики / Good Boys (2019) BDRip [H.264 / 720p-LQ]
  • Хорошие мальчики / Good Boys (2019) BDRip [1080p] ATV


    • Комментарии (0):

      Информация

      Информация

        Посетители, находящиеся в группе Гости, не могут оставлять комментарии в данной новости.

        ↓ Меню




        ↓ Опрос

        Вы добавили сайт в закладки?
        Да
        Нет


        Популярное