Подписывайся на наш канал в Telegram https://t.me/torrentok и получи доступ к торрентам без ограничений!
.
Авторизация | Регистрация
bitok.xyz
Торрент скачать бесплатно Другое торрент скачать Blackthorn (Russian band) (Music Videos 7X Retail CD Audio) (2013-2020) WEB-DL [H.264 / 1080p-LQ] торрент скачать бесплатно

    Blackthorn (Russian band) (Music Videos 7X Retail CD Audio) (2013-2020) WEB-DL [H.264 / 1080p-LQ] торрент скачать бесплатно

    Дата: 17-01-2020, 05:00 | .torrent скачали: 0

    Blackthorn (Russian band) (Music Videos 7X Retail CD Audio) (2013-2020) WEB-DL [H.264 / 1080p-LQ]Производство: Amorsus Studio
    Жанр: Female Symphonic Extreme Metal
    Режиссер: Мария Алмазова-Матвеева
    Треклист:
    2013 Blackthorn - Hexshadow Turned to Flesh
    2014 Blackthorn - The Spectral Evildence Performance
    2014 Blackthorn - The Spectral Evildence
    2014 Blackthorn - The Spectral Evildence Story
    2017 Blackthorn - Moonbreed Sigil
    2019 Blackthorn - Silver Key (Fan Video)
    2020 Blackthorn - Graven On a Deathless Sin
    Продолжительность: 00: 31: 21
    Качество видео: WEB-DL
    Видео: AVC/H.264, 1920x1080 (1.778), ~3210 kbps
    Аудио: MP3, 2 ch, CBR 320 kbps2014 Blackthorn - The Spectral Evildence Performance Retail CD Audio-Vayper 1080.mkv
    Format : Matroska
    Format version : Version 2
    File size : 96.9 MiB
    Duration : 3 min 49 s
    Overall bit rate : 3 536 kb/s
    Encoded date : UTC 2020-01-14 14: 48: 52
    Writing application : mkvmerge v4.1.1 (\'Bouncin\' Back\') сборка от Jul 3 2010 22: 54: 08
    Writing library : libebml v1.0.0 + libmatroska v1.0.0
    Video
    ID : 1
    Format : AVC
    Format/Info : Advanced Video Codec
    Format profile : High@L4
    Format settings : CABAC/3 Ref Frames
    Format settings, CABAC : Yes
    Format settings, Reference frames : 3 frames
    Codec ID : V_MPEG4/ISO/AVC
    Duration : 3 min 49 s
    Bit rate : 3 146 kb/s
    Width : 1 920 pixels
    Height : 1 080 pixels
    Display aspect ratio : 16: 9
    Frame rate mode : Constant
    Frame rate : 25.000 FPS
    Color space : YUV
    Chroma subsampling : 4: 2: 0
    Bit depth : 8 bits
    Scan type : Progressive
    Bits/(Pixel*Frame) : 0.061
    Stream size : 86.2 MiB (89%)
    Default : Yes
    Forced : No
    Audio
    ID : 2
    Format : MPEG Audio
    Format version : Version 1
    Format profile : Layer 3
    Muxing mode : Header stripping
    Codec ID : A_MPEG/L3
    Codec ID/Hint : MP3
    Duration : 3 min 49 s
    Bit rate mode : Constant
    Bit rate : 320 kb/s
    Channel(s) : 2 channels
    Sampling rate : 44.1 kHz
    Compression mode : Lossy
    Stream size : 8.77 MiB (9%)
    Default : Yes
    Forced : No2019 Blackthorn - Silver Key (Fan Video Retail CD Audio-Vayper) 1080.mp4
    Format : MPEG-4
    Format profile : Base Media/Version 2
    Codec ID : mp42 (mp42/isom)
    File size : 75.9 MiB
    Duration : 3 min 50 s
    Overall bit rate mode : Variable
    Overall bit rate : 2 760 kb/s
    Encoded date : UTC 2020-01-14 15: 16: 14
    Tagged date : UTC 2020-01-14 15: 16: 14
    Video
    ID : 2
    Format : AVC
    Format/Info : Advanced Video Codec
    Format profile : Main@L4
    Format settings : CABAC/3 Ref Frames
    Format settings, CABAC : Yes
    Format settings, Reference frames : 3 frames
    Format settings, GOP : M=4, N=15
    Codec ID : avc1
    Codec ID/Info : Advanced Video Coding
    Duration : 3 min 50 s
    Bit rate mode : Variable
    Bit rate : 2 437 kb/s
    Maximum bit rate : 4 000 kb/s
    Width : 1 920 pixels
    Height : 1 080 pixels
    Display aspect ratio : 16: 9
    Frame rate mode : Constant
    Frame rate : 14.985 (15000/1001) FPS
    Standard : NTSC
    Color space : YUV
    Chroma subsampling : 4: 2: 0
    Bit depth : 8 bits
    Scan type : Progressive
    Bits/(Pixel*Frame) : 0.078
    Stream size : 67.0 MiB (88%)
    Language : English
    Encoded date : UTC 2020-01-14 15: 16: 14
    Tagged date : UTC 2020-01-14 15: 16: 14
    Color range : Limited
    Codec configuration box : avcC
    Audio
    ID : 1
    Format : AAC LC
    Format/Info : Advanced Audio Codec Low Complexity
    Codec ID : mp4a-40-2
    Duration : 3 min 50 s
    Source duration : 3 min 50 s
    Bit rate mode : Constant
    Bit rate : 320 kb/s
    Channel(s) : 2 channels
    Channel layout : L R
    Sampling rate : 44.1 kHz
    Frame rate : 43.066 FPS (1024 SPF)
    Compression mode : Lossy
    Stream size : 8.79 MiB (12%)
    Source stream size : 8.79 MiB (12%)
    Language : English
    Encoded date : UTC 2020-01-14 15: 16: 14
    Tagged date : UTC 2020-01-14 15: 16: 142020 Blackthorn - Graven On a Deathless Sin Retail CD Audio-Vayper 1080.mkv
    Format : Matroska
    Format version : Version 2
    File size : 79.5 MiB
    Duration : 3 min 36 s
    Overall bit rate : 3 080 kb/s
    Encoded date : UTC 2020-01-14 14: 20: 44
    Writing application : mkvmerge v4.1.1 (\'Bouncin\' Back\') сборка от Jul 3 2010 22: 54: 08
    Writing library : libebml v1.0.0 + libmatroska v1.0.0
    Video
    ID : 1
    Format : AVC
    Format/Info : Advanced Video Codec
    Format profile : High@L4
    Format settings : CABAC/3 Ref Frames
    Format settings, CABAC : Yes
    Format settings, Reference frames : 3 frames
    Codec ID : V_MPEG4/ISO/AVC
    Duration : 3 min 36 s
    Bit rate : 2 699 kb/s
    Width : 1 920 pixels
    Height : 1 080 pixels
    Display aspect ratio : 16: 9
    Frame rate mode : Constant
    Frame rate : 25.000 FPS
    Color space : YUV
    Chroma subsampling : 4: 2: 0
    Bit depth : 8 bits
    Scan type : Progressive
    Bits/(Pixel*Frame) : 0.052
    Stream size : 69.7 MiB (88%)
    Default : Yes
    Forced : No
    Color range : Limited
    Color primaries : BT.709
    Transfer characteristics : BT.709
    Matrix coefficients : BT.709
    Audio
    ID : 2
    Format : MPEG Audio
    Format version : Version 1
    Format profile : Layer 3
    Muxing mode : Header stripping
    Codec ID : A_MPEG/L3
    Codec ID/Hint : MP3
    Duration : 3 min 36 s
    Bit rate mode : Constant
    Bit rate : 320 kb/s
    Channel(s) : 2 channels
    Sampling rate : 44.1 kHz
    Compression mode : Lossy
    Stream size : 8.26 MiB (10%)
    Default : Yes
    Forced : No


    Blackthorn (Russian band) (Music Videos 7X Retail CD Audio) (2013-2020) WEB-DL [H.264 / 1080p-LQ] торрент скачать бесплатно
    Рейтинг →
     (голосов: 1, оценка 3/5, голосовать можно 1 раз )

    Другие торренты по теме:

  • Blackthorn Suffering - Терновые Страдания (2014) EP [MP3|320 кб / с]<Atmospheric Black Metal, Depressive Black Metal>


    • Комментарии (0):

      Информация

      Информация

        Посетители, находящиеся в группе Гости, не могут оставлять комментарии в данной новости.