Подписывайся на наш канал в Telegram https://t.me/torrentok и получи доступ к торрентам без ограничений!
.
Авторизация | Регистрация
bitok.xyz
Торрент скачать бесплатно Другое торрент скачать Алексей Глухов - Проект Ансамбль Христа Спасителя и Мать Сыра Земля. 67 видеоклипов. (Zymotic Productions Ultra) (2007-2020) WEB-DL [H.264 / 480p / 720p / 1080p-LQ] торрент скачать бесплатно


    Алексей Глухов - Проект Ансамбль Христа Спасителя и Мать Сыра Земля. 67 видеоклипов. (Zymotic Productions Ultra) (2007-2020) WEB-DL [H.264 / 480p / 720p / 1080p-LQ] торрент скачать бесплатно

    Дата: 30-01-2020, 05:00 | .torrent скачали: 1

    Алексей Глухов - Проект Ансамбль Христа Спасителя и Мать Сыра Земля. 67 видеоклипов. (Zymotic Productions Ultra) (2007-2020) WEB-DL [H.264 / 480p / 720p / 1080p-LQ]Производство: (c) Zymotic Productions Ultra
    Жанр: Hardcore-Disco
    Продолжительность: 02: 24: 56
    Качество видео: WEB-DL-LQ
    Видео: AVC/H.264, 1920x1080, ~3018 kbps, 1280x720, ~1518 kbps, 720x576, ~3518 kbps,
    Аудио: MP3, 2 ch, 320 KbpsТреклист:
    2007 АХСиМСЗ - Kill the Astronauts V.1 (Official) (640 x 480).mkv
    2007 АХСиМСЗ - Kill the Astronauts V.2 (Official) (1280 x 720).mkv
    2008 АХСиМСЗ - Your Knife Will Handle It (Official) (by Vayper) (720 x 536).mkv
    2011 АХСиМСЗ - Orthodox God Does Not Decree (Official) (720 x 576).mkv
    2011 АХСиМСЗ - Orthodox God Does Not Decree (Movies) (Official) 854 x 480.mkv
    2011 АХСиМСЗ - Our Icons (Official) (720 x 576).mkv
    2011 АХСиМСЗ - They Trade Our God (Official) (720 х 576).mkv
    2018 АХСиМСЗ - Don\'t Kill the Astronauts V.1 (Official) (by Vayper) (720 x 576).mpg
    2018 АХСиМСЗ - Don\'t Kill the Astronauts V.2 (Official) (by Vayper) (1280 x 720).mkv
    2018 АХСиМСЗ - Orthodox God Does Not Decree (Remastered Renegade MIX Version) (Official) (by Vayper) (720 x 576).mpg
    2018 АХСиМСЗ - Громи!!! (Official) (720 x 536).mkv
    2018 АХСиМСЗ - Заговор (ГО cover) (Official) (1920 x 1080).mkv
    2018 АХСиМСЗ - Легионы Президента (Official) (720 x 536).mkv
    2018 АХСиМСЗ - Мы Будем (Live Clip) (Official) 1920 x 1080.mkv
    2018 АХСиМСЗ - Наш Бессмертный Президент (Official) (720 x 536).mkv
    2019 АХСиМСЗ - Our Icons (Remastered Renegade MIX Version) (Official) (by Vayper) (720 x 576).mpg
    2019 АХСиМСЗ - Tanya Voina-GG Allin cover (Official) (1280 x 720).mkv
    2019 АХСиМСЗ - Агония Власти (Live Video) (Official) (1280 x 720).mkv
    2019 АХСиМСЗ - Богатей, Правительство!!! (Official) (1920 x 1080).mkv
    2020 АХСиМСЗ - Все Дороги Ведут в Federal Security Service (Official) (1280 x 720).mkv
    2020 АХСиМСЗ - Вызывай Скотовозку! (Official) (1920 x 1080).mkv
    2020 АХСиМСЗ - Кроткие мужчины (Official) (1920 x 1080).mkv
    2020 АХСиМСЗ - Нашествие (Official) (1920 x 1080).mkv
    2020 АХСиМСЗ - Пенсионная Реформа (Official) (1920 x 1080).mkv
    2020 АХСиМСЗ - Потребитель (Official) (1920 x 1080).mkv2015 АХСиМСЗ - Наши иконы (Live Video) (Unofficial) 1920 x 1080.mkv
    2015 АХСиМСЗ - Православным Бог не указ! (Live Video) (Unofficial) 1920 x 1080.mkv
    2015 АХСиМСЗ - Я не поеду на Нашествие (Live Video) (Unofficial) 1920 x 1080.mkv
    2016 АХСиМСЗ - Молилась (Unofficial) (1024 х 768).mkv
    2016 АХСиМСЗ - Не пользуйся презервативом (Unofficial) (1280 x 720).mkv
    2016 АХСиМСЗ - Спасибо (Unofficial) (720 x 400).mkv
    2017 АХСиМСЗ - BlinChiki (Unofficial) (1280 x 720).mkv
    2017 АХСиМСЗ - Pussy Young Roundnose feat. Диана Шурыгина (Unofficial) (1024 x 640).mkv
    2018 АХСиМСЗ - Мы с Президентом (Unofficial) (640 x 480).mkv
    2019 АХСиМСЗ - Русь (Unofficial) (by Vayper) (1280 х 720).mkv
    2020 АХСиМСЗ - Да здравствует Война! (Ukr) (Unofficial) (by Vayper) (1920 x 1080).mkv
    2020 АХСиМСЗ - Кто ты без работы (Unofficial) (by Vayper) (1280 х 720).mkv
    2020 АХСиМСЗ - Распни этих всех депутатов (Ukr) (Unofficial) (by Vayper) (1920 x 1080).mkv2007 АХСиМСЗ - Kill the Astronauts V.3 (Movies Ukr) (1024 x 576).mkv
    2007 АХСиМСЗ - Дети. Церковь. Кухня (Movies) (by J.P)714 x 304.mkv
    2007 АХСиМСЗ - Имей Феминисток (Movies) (640 x 480).mkv
    2007 АХСиМСЗ - По православным мечетям Твери (Live Video) 720 x 480.mkv
    2007 АХСиМСЗ - Православная Тверь (Movies) 640 x 480.mkv
    2007 АХСиМСЗ - Президента нужно клонировать (Movies) (640 x 360).mkv
    2007 АХСиМСЗ - Такого Как Гитлер (Movies) 640 x 272.mkv
    2007 АХСиМСЗ - Цепные псы Православия (Movies) 720 х 536.mkv
    2008 АХСиМСЗ - Give Birth to Sons for War! V.1 (Movies) (1280 x 720).mkv
    2008 АХСиМСЗ - Give Birth to Sons for War! V.2 (Movies) 640 x 480.mkv
    2008 АХСиМСЗ - Ich propagiere den Faschismus (Movies) (1280 x 720) by Vayper.mkv
    2008 АХСиМСЗ - In the Guts, and Pussy and Dicks (Movies) 720 x 576.mkv
    2008 АХСиМСЗ - Побольше смотри телевизор (Movies) 640 x 480.mkv
    2008 АХСиМСЗ - Я не поеду на Нашествие (Movies) 654 x 480.mkv
    2009 АХСиМСЗ - Мы фанатики (Movies) 1280 x 720.mkv
    2011 АХСиМСЗ - Our Icons - Cover by Morguenstern (1920 x 1080).mkv
    2011 АХСиМСЗ - Апартеид (Movies) (1024 x 576).mkv
    2011 АХСиМСЗ - Мы (Movies) 640 x 480.mkv
    2011 АХСиМСЗ - Мы вырежем (Movies) (720 x 400).mkv
    2011 АХСиМСЗ - Нет никакого космоса (Movies) (640 x 480).mkv
    2011 АХСиМСЗ - Пусть Рухнет Коллайдер (Movies) (by Vayper) 1024 x 576.mkv
    2011 АХСиМСЗ - Рогатка V.1 (Movies Ukr) (1024 x 576).mkv
    2011 АХСиМСЗ - Рогатка V.2 (Movies Ukr) 1280 x 720.mkv
    2012 АХСиМСЗ - Ради деда ветерана (Movies) 1024 x 576.mkv
    2014 АХСиМСЗ - ООО (Movies) (1280 x 720).mkv
    2014 АХСиМСЗ - Рай попов и полицейских (Movies) (720 x 400).mkv
    2015 АХСиМСЗ - Даешь детские тюрьмы (Live Video) 1920 x 1080.mkv
    2015 АХСиМСЗ - Песня Против Абортов (Live Video) (1280 x 720).mkv
    2017 АХСиМСЗ - Закон есть Закон (Movies) (1024 x 576).mkv
    General
    Unique ID : 208060377663095060242746643360889669892 (0x9C86F89DD2AD3FA6B7BD279E8CC38904)
    Complete name : Z: VIDEO MUSICALTERNATIVE RUАлексей Глухов (Zymotic Productions Ultra)АХСиМСЗ Music Videos (2007-2020)20072007 АХСиМСЗ - Kill the Astronauts V.1 (OV) (640 x 480).mkv
    Format : Matroska
    Format version : Version 2
    File size : 93.8 MiB
    Duration : 8 min 0 s
    Overall bit rate mode : Variable
    Overall bit rate : 1 636 kb/s
    Encoded date : UTC 2020-01-15 10: 54: 38
    Writing application : mkvmerge v4.1.1 (\'Bouncin\' Back\') сборка от Jul 3 2010 22: 54: 08
    Writing library : libebml v1.0.0 + libmatroska v1.0.0
    Video
    ID : 1
    Format : AVC
    Format/Info : Advanced Video Codec
    Format profile : High@L4.1
    Format settings : CABAC/3 Ref Frames
    Format settings, CABAC : Yes
    Format settings, Reference frames : 3 frames
    Codec ID : V_MPEG4/ISO/AVC
    Duration : 8 min 0 s
    Bit rate : 1 359 kb/s
    Width : 640 pixels
    Height : 480 pixels
    Display aspect ratio : 4: 3
    Frame rate mode : Constant
    Frame rate : 25.000 FPS
    Color space : YUV
    Chroma subsampling : 4: 2: 0
    Bit depth : 8 bits
    Scan type : Progressive
    Bits/(Pixel*Frame) : 0.177
    Stream size : 77.9 MiB (83%)
    Writing library : x264 core 65 r999kMod cc51047
    Encoding settings : cabac=1/ref=3/deblock=1: 0: 0/analyse=0x3: 0x133/me=umh/subme=6/psy_rd=1.0: 0.0/mixed_ref=1/me_range=16/chroma_me=1/trellis=1/8x8dct=1/cqm=0/deadzone=21, 11/chroma_qp_offset=-2/threads=4/thread_queue=4/nr=0/decimate=1/mbaff=0/bframes=3/b_pyramid=1/b_adapt=1/b_bias=0/direct=1/wpredb=1/keyint=250/keyint_min=25/scenecut=40(pre)/rc=crf/crf=21.0000/qcomp=0.60/qpmin=10/qpmax=51/qpstep=4/ip_ratio=1.40/pb_ratio=1.30/aq=1: 1.00
    Default : Yes
    Forced : No
    Audio
    ID : 2
    Format : MPEG Audio
    Format version : Version 1
    Format profile : Layer 3
    Muxing mode : Header stripping
    Codec ID : A_MPEG/L3
    Codec ID/Hint : MP3
    Duration : 8 min 0 s
    Bit rate mode : Variable
    Bit rate : 244 kb/s
    Channel(s) : 2 channels
    Sampling rate : 48.0 kHz
    Frame rate : 41.667 FPS (1152 SPF)
    Compression mode : Lossy
    Stream size : 14.0 MiB (15%)
    Default : Yes
    Forced : No
    General
    Unique ID : 175935008114925810087087850862164893154 (0x845BD99C2F8A39F49C56458B1EC8DDE2)
    Complete name : Z: VIDEO MUSICALTERNATIVE RUАлексей Глухов (Zymotic Productions Ultra)АХСиМСЗ Music Videos (2007-2020)20072007 АХСиМСЗ - Kill the Astronauts V.2 (Movies) (1280 x 720).mkv
    Format : Matroska
    Format version : Version 2
    File size : 107 MiB
    Duration : 3 min 28 s
    Overall bit rate mode : Variable
    Overall bit rate : 4 322 kb/s
    Encoded date : UTC 2020-01-15 12: 01: 43
    Writing application : mkvmerge v4.1.1 (\'Bouncin\' Back\') сборка от Jul 3 2010 22: 54: 08
    Writing library : libebml v1.0.0 + libmatroska v1.0.0
    Video
    ID : 1
    Format : AVC
    Format/Info : Advanced Video Codec
    Format profile : Main@L4
    Format settings : CABAC/3 Ref Frames
    Format settings, CABAC : Yes
    Format settings, Reference frames : 3 frames
    Codec ID : V_MPEG4/ISO/AVC
    Duration : 3 min 28 s
    Bit rate : 4 087 kb/s
    Width : 1 280 pixels
    Height : 720 pixels
    Display aspect ratio : 16: 9
    Frame rate mode : Constant
    Frame rate : 29.970 (29970/1000) FPS
    Color space : YUV
    Chroma subsampling : 4: 2: 0
    Bit depth : 8 bits
    Scan type : Progressive
    Bits/(Pixel*Frame) : 0.148
    Stream size : 99.4 MiB (93%)
    Writing library : x264 core 65 r999kMod cc51047
    Encoding settings : cabac=1/ref=3/deblock=1: -2: -1/analyse=0x1: 0x131/me=umh/subme=7/psy_rd=1.0: 0.0/mixed_ref=1/me_range=16/chroma_me=1/trellis=2/8x8dct=0/cqm=0/deadzone=21, 11/chroma_qp_offset=-2/threads=4/thread_queue=4/nr=0/decimate=0/mbaff=0/bframes=3/b_pyramid=0/b_adapt=1/b_bias=0/direct=3/wpredb=1/keyint=250/keyint_min=25/scenecut=40(pre)/rc=2pass/bitrate=4087/ratetol=1.0/qcomp=0.60/qpmin=10/qpmax=51/qpstep=4/cplxblur=20.0/qblur=0.5/ip_ratio=1.40/pb_ratio=1.30/aq=1: 1.00
    Default : Yes
    Forced : No
    Audio
    ID : 2
    Format : MPEG Audio
    Format version : Version 1
    Format profile : Layer 3
    Format settings : Joint stereo
    Muxing mode : Header stripping
    Codec ID : A_MPEG/L3
    Codec ID/Hint : MP3
    Duration : 3 min 28 s
    Bit rate mode : Variable
    Bit rate : 230 kb/s
    Channel(s) : 2 channels
    Sampling rate : 48.0 kHz
    Frame rate : 41.667 FPS (1152 SPF)
    Compression mode : Lossy
    Stream size : 5.72 MiB (5%)
    Default : Yes
    Forced : No
    General
    Unique ID : 191089233773170987123237156721898037353 (0x8FC2729EEAAC47ECB7CB7A4EA6C02069)
    Complete name : Z: VIDEO MUSICALTERNATIVE RUАлексей Глухов (Zymotic Productions Ultra)АХСиМСЗ Music Videos (2007-2020)20072007 АХСиМСЗ - Kill the Astronauts V.3 (Movies Ukr) (1024 x 576).mkv
    Format : Matroska
    Format version : Version 2
    File size : 77.1 MiB
    Duration : 3 min 28 s
    Overall bit rate : 3 106 kb/s
    Encoded date : UTC 2020-01-19 17: 00: 38
    Writing application : mkvmerge v4.1.1 (\'Bouncin\' Back\') сборка от Jul 3 2010 22: 54: 08
    Writing library : libebml v1.0.0 + libmatroska v1.0.0
    Video
    ID : 1
    Format : AVC
    Format/Info : Advanced Video Codec
    Format profile : Baseline@L3.1
    Format settings : 1 Ref Frames
    Format settings, CABAC : No
    Format settings, Reference frames : 1 frame
    Codec ID : V_MPEG4/ISO/AVC
    Duration : 3 min 28 s
    Bit rate : 2 770 kb/s
    Width : 1 024 pixels
    Height : 576 pixels
    Display aspect ratio : 16: 9
    Frame rate mode : Constant
    Frame rate : 25.000 FPS
    Color space : YUV
    Chroma subsampling : 4: 2: 0
    Bit depth : 8 bits
    Scan type : Progressive
    Bits/(Pixel*Frame) : 0.188
    Stream size : 67.6 MiB (88%)
    Writing library : x264 core 148 r2643 5c65704
    Encoding settings : cabac=0/ref=1/deblock=1: 0: 0/analyse=0x1: 0x111/me=hex/subme=7/psy=1/psy_rd=1.00: 0.00/mixed_ref=0/me_range=16/chroma_me=1/trellis=1/8x8dct=0/cqm=0/deadzone=21, 11/fast_pskip=1/chroma_qp_offset=-2/threads=6/lookahead_threads=1/sliced_threads=0/nr=0/decimate=1/interlaced=0/bluray_compat=0/constrained_intra=0/bframes=0/weightp=0/keyint=250/keyint_min=25/scenecut=40/intra_refresh=0/rc_lookahead=40/rc=abr/mbtree=1/bitrate=2770/ratetol=1.0/qcomp=0.60/qpmin=10/qpmax=51/qpstep=4/ip_ratio=1.41/aq=1: 1.00
    Default : Yes
    Forced : No
    Audio
    ID : 2
    Format : MPEG Audio
    Format version : Version 1
    Format profile : Layer 3
    Muxing mode : Header stripping
    Codec ID : A_MPEG/L3
    Codec ID/Hint : MP3
    Duration : 3 min 28 s
    Bit rate mode : Constant
    Bit rate : 320 kb/s
    Channel(s) : 2 channels
    Sampling rate : 48.0 kHz
    Compression mode : Lossy
    Stream size : 7.94 MiB (10%)
    Default : Yes
    Forced : No
    General
    Complete name : Z: VIDEO MUSICALTERNATIVE RUАлексей Глухов (Zymotic Productions Ultra)АХСиМСЗ Music Videos (2007-2020)20182018 АХСиМСЗ - Orthodox God Does Not Decree (Remastered Renegade MIX Version) (OV) (by Vayper) (720 x 576).mpg
    Format : MPEG-PS
    File size : 375 MiB
    Duration : 11 min 54 s
    Overall bit rate mode : Variable
    Overall bit rate : 4 404 kb/s
    Video
    ID : 224 (0xE0)
    Format : MPEG Video
    Format version : Version 2
    Format profile : Main@Main
    Format settings : BVOP
    Format settings, BVOP : Yes
    Format settings, Matrix : Default
    Format settings, GOP : M=3, N=12
    Format settings, picture structure : Frame
    Duration : 11 min 54 s
    Bit rate mode : Variable
    Bit rate : 3 932 kb/s
    Maximum bit rate : 9 800 kb/s
    Width : 720 pixels
    Height : 576 pixels
    Display aspect ratio : 4: 3
    Frame rate : 25.000 FPS
    Standard : PAL
    Color space : YUV
    Chroma subsampling : 4: 2: 0
    Bit depth : 8 bits
    Scan type : Interlaced
    Scan order : Bottom Field First
    Compression mode : Lossy
    Bits/(Pixel*Frame) : 0.379
    Time code of first frame : 00: 00: 00: 00
    Time code source : Group of pictures t_head
    GOP, Open/Closed : Open
    GOP, Open/Closed of first frame : Closed
    Stream size : 335 MiB (89%)
    Audio
    ID : 192 (0xC0)
    Format : MPEG Audio
    Format version : Version 1
    Format profile : Layer 2
    Duration : 11 min 54 s
    Bit rate mode : Constant
    Bit rate : 384 kb/s
    Channel(s) : 2 channels
    Sampling rate : 48.0 kHz
    Frame rate : 41.667 FPS (1152 SPF)
    Compression mode : Lossy
    Stream size : 32.7 MiB (9%)
    Menu
    General
    Unique ID : 252163783789858651698840856984190067491 (0xBDB4FA6BE928828B8C21A9B8C3162323)
    Complete name : Z: VIDEO MUSICALTERNATIVE RUАлексей Глухов (Zymotic Productions Ultra)АХСиМСЗ Music Videos (2007-2020)20202020 АХСиМСЗ - Да здравствует Война! (Ukr) (by Vayper) (1920 x 1080).mkv
    Format : Matroska
    Format version : Version 2
    File size : 119 MiB
    Duration : 3 min 25 s
    Overall bit rate mode : Variable
    Overall bit rate : 4 873 kb/s
    Encoded date : UTC 2020-01-20 10: 30: 33
    Writing application : mkvmerge v4.1.1 (\'Bouncin\' Back\') сборка от Jul 3 2010 22: 54: 08
    Writing library : libebml v1.0.0 + libmatroska v1.0.0
    Video
    ID : 1
    Format : AVC
    Format/Info : Advanced Video Codec
    Format profile : Main@L4
    Format settings : CABAC/3 Ref Frames
    Format settings, CABAC : Yes
    Format settings, Reference frames : 3 frames
    Format settings, GOP : M=4, N=15
    Codec ID : V_MPEG4/ISO/AVC
    Duration : 3 min 25 s
    Bit rate mode : Variable
    Bit rate : 4 456 kb/s
    Maximum bit rate : 10 000 kb/s
    Width : 1 920 pixels
    Height : 1 080 pixels
    Display aspect ratio : 16: 9
    Frame rate mode : Constant
    Frame rate : 25.000 FPS
    Standard : NTSC
    Color space : YUV
    Chroma subsampling : 4: 2: 0
    Bit depth : 8 bits
    Scan type : Progressive
    Bits/(Pixel*Frame) : 0.086
    Stream size : 109 MiB (91%)
    Language : English
    Default : Yes
    Forced : No
    Color range : Limited
    Audio
    ID : 2
    Format : MPEG Audio
    Format version : Version 1
    Format profile : Layer 3
    Format settings : Joint stereo
    Muxing mode : Header stripping
    Codec ID : A_MPEG/L3
    Codec ID/Hint : MP3
    Duration : 3 min 25 s
    Bit rate mode : Constant
    Bit rate : 320 kb/s
    Channel(s) : 2 channels
    Sampling rate : 48.0 kHz
    Compression mode : Lossy
    Stream size : 7.82 MiB (7%)
    Default : Yes
    Forced : No


    Алексей Глухов - Проект Ансамбль Христа Спасителя и Мать Сыра Земля. 67 видеоклипов. (Zymotic Productions Ultra) (2007-2020) WEB-DL [H.264 / 480p / 720p / 1080p-LQ] торрент скачать бесплатно
    Рейтинг →
     (голосов: 1, оценка 3/5, голосовать можно 1 раз )

    Другие торренты по теме:

  • Алексей Глухов (Проекты Лёша Закон, Молот Родины, Шалава из Твери) (Zymotic Productions Ultra) (Music Videos 37X) (2005-2020) WEB-DL [H.264 / 480p / 720p / 1080p-LQ]
  • Алексей Глухов и АХСиМСЗ - Концертные выступления 3Х (2011-2018) CamRip
  • Алексей Глухов (Лёша Закон) - Держись, заграница.. (2015) [MP3|320 Kbps] <Авторская песня, Rock, Acoustic>
  • Алексей Глухов (Лёша Закон) в проекте PODZA... PERHOTЬ - Van Huevels Destructive Forceps (Zymotic Productions Ultra) (2020) [MP3|320 Kbps] <Noise, Goregrind, Grindcore>
  • Алексей Глухов (ЛЁША ЗАКОН) - 22 Альбома (2002-2019) Полная Дискография [MP3|64-320 Kbps] <Rock, Chanson, Acoustic>
  • Алексей Глухов (Лёша Закон) - Видеоархивы (2005 - 2012) (Remaster) (2020) DVD9 [Custom]
  • Алексей Глухов (Лёша Закон) - Woedd Carn - Into The Dark Abyss (2013) [MP3|~225 Kbps (V1)] <Dark Ambient, Dungeon Synth, Noise>


    • Комментарии (0):

      Информация

      Информация

        Посетители, находящиеся в группе Гости, не могут оставлять комментарии в данной новости.