ВАЖНО! Сайт скоро заблокируют! Подписывайся на наш канал в Telegram https://t.me/torrentok и получи доступ к торрентам без ограничений!
.
Авторизация | Регистрация
bitok.xyz
Торрент скачать бесплатно Другое торрент скачать Последнее, чего он хотел / The Last Thing He Wanted (2020) WEBRip [H.264 / 720p-LQ] [hand made 16:9] [PR] торрент скачать бесплатно


    Последнее, чего он хотел / The Last Thing He Wanted (2020) WEBRip [H.264 / 720p-LQ] [hand made 16:9] [PR] торрент скачать бесплатно

    Дата: 22-02-2020, 05:00 | .torrent скачали: 1

    Последнее, чего он хотел / The Last Thing He Wanted (2020) WEBRip [H.264 / 720p-LQ] [hand made 16:9] [PR]Производство: США | Elevated Films (II), Pimienta, The Fyzz Facility, thefyzz
    Жанр: триллер, драма, криминал, детектив
    Режиссер: Ди Риис

    Актеры
    Бен Аффлек, Энн Хэтэуэй, Уиллем Дефо, Рози Перес, Тоби Джонс, Эди Гатеги, Мэл Родригез, Ashae Reagan, Лаура Ниеми, Лаура Ниеми, Карлос Леаль

    Описание

    Журналистка газеты Washington Post Елена Макмэхон, выполняя последнюю просьбу матери, отказывается освещать президентские выборы 1984 года и начинает ухаживать за пожилым отцом, который в своё время занимался организацией поставок оружия в Иран и финансированием повстанцев в Центральной Америке.

    Рейтинг MPAA: R (лицам до 17 лет обязательно присутствие взрослого)
    Дата мировой премьеры: 27 января 2020
    Продолжительность: 01: 55: 42
    Качество видео: WEBRip
    Перевод: Дублированный (Пифагор)
    Субтитры: Русские, английские
    Видео: AVC/H.264, 1280x720 (16: 9), ~4354 Kbps
    Аудио 1: AC3, 6 ch, 384 Kbps - Русский
    Аудио 2: AC3, 6 ch, 384 Kbps - Анлийский
    General
    Unique ID : 17632515423929038810576653326198150976 (0xD43E621422054ADAA850CEB21BE9740)
    Complete name : E: The_Last_Thing_He_Wanted_720p.mkv
    Format : Matroska
    Format version : Version 4
    File size : 4.14 GiB
    Duration : 1 h 55 min
    Overall bit rate : 5 124 kb/s
    Encoded date : UTC 2020-02-21 15: 35: 42
    Writing application : mkvmerge v43.0.0 (\'The Quartermaster\') 64-bit
    Writing library : libebml v1.3.10 + libmatroska v1.5.2
    Video
    ID : 1
    Format : AVC
    Format/Info : Advanced Video Codec
    Format profile : Main@L4.1
    Format settings : CABAC/3 Ref Frames
    Format settings, CABAC : Yes
    Format settings, ReFrames : 3 frames
    Codec ID : V_MPEG4/ISO/AVC
    Duration : 1 h 55 min
    Bit rate : 4 354 kb/s
    Width : 1 280 pixels
    Height : 720 pixels
    Display aspect ratio : 16: 9
    Frame rate mode : Constant
    Frame rate : 24.000 FPS
    Standard : NTSC
    Color space : YUV
    Chroma subsampling : 4: 2: 0
    Bit depth : 8 bits
    Scan type : Progressive
    Bits/(Pixel*Frame) : 0.197
    Stream size : 3.52 GiB (85%)
    Language : English
    Default : Yes
    Forced : No
    Color range : Limited
    Color primaries : BT.709
    Transfer characteristics : BT.709
    Matrix coefficients : BT.709
    Audio #1
    ID : 2
    Format : AC-3
    Format/Info : Audio Coding 3
    Commercial name : Dolby Digital
    Codec ID : A_AC3
    Duration : 1 h 55 min
    Bit rate mode : Constant
    Bit rate : 384 kb/s
    Channel(s) : 6 channels
    Channel layout : L R C LFE Ls Rs
    Sampling rate : 48.0 kHz
    Frame rate : 31.250 FPS (1536 SPF)
    Bit depth : 16 bits
    Compression mode : Lossy
    Stream size : 318 MiB (7%)
    Title : Ru
    Language : Russian
    Service kind : Complete Main
    Default : Yes
    Forced : No
    Audio #2
    ID : 3
    Format : AC-3
    Format/Info : Audio Coding 3
    Commercial name : Dolby Digital
    Codec ID : A_AC3
    Duration : 1 h 55 min
    Bit rate mode : Constant
    Bit rate : 384 kb/s
    Channel(s) : 6 channels
    Channel layout : L R C LFE Ls Rs
    Sampling rate : 48.0 kHz
    Frame rate : 31.250 FPS (1536 SPF)
    Bit depth : 16 bits
    Compression mode : Lossy
    Stream size : 318 MiB (7%)
    Title : En
    Language : English
    Service kind : Complete Main
    Default : No
    Forced : No
    Text #1
    ID : 4
    Format : UTF-8
    Codec ID : S_TEXT/UTF8
    Codec ID/Info : UTF-8 Plain Text
    Duration : 1 h 47 min
    Bit rate : 109 b/s
    Count of elements : 1634
    Stream size : 86.8 KiB (0%)
    Title : Ru
    Language : Russian
    Default : No
    Forced : No
    Text #2
    ID : 5
    Format : UTF-8
    Codec ID : S_TEXT/UTF8
    Codec ID/Info : UTF-8 Plain Text
    Duration : 1 h 45 min
    Bit rate : 76 b/s
    Count of elements : 1686
    Stream size : 59.1 KiB (0%)
    Title : En
    Language : English
    Default : No
    Forced : No

    Скриншоты для ознакомления



    Все одноименные релизы в Клубе
    Время раздачи: 24/7 (до появления первых 3-5 скачавших)

    Последнее, чего он хотел / The Last Thing He Wanted (2020) WEBRip [H.264 / 720p-LQ] [hand made 16:9] [PR] торрент скачать бесплатно
    Рейтинг →
     (голосов: 1, оценка 5/5, голосовать можно 1 раз )

    Другие торренты по теме:

  • Последнее, чего он хотел / The Last Thing He Wanted (2020) WEBRip [H.265 / 1080p-LQ] [10-bit]
  • Последнее, чего он хотел / The Last Thing He Wanted (2020) WEB-DL [1080p] ATV
  • Последнее, чего он хотел / The Last Thing He Wanted (2020) WEBRip [H.265] [10-bit]


    • Комментарии (0):

      Информация

      Информация

        Посетители, находящиеся в группе Гости, не могут оставлять комментарии в данной новости.