.
Авторизация | Регистрация
bitok.xyz
» » Шакал / The Jackal (1997) BDRip [1080p] ATV торрент скачать бесплатно


    Шакал / The Jackal (1997) BDRip [1080p] ATV торрент скачать бесплатно

    Дата: 31-07-2018, 05:00 | .torrent скачали: 0

    Шакал / The Jackal (1997) BDRip [1080p] ATVПроизводство: Германия, США, Франция, Япония, Великобритания/Universal Pictures, Alphaville Films, BBC Television Centre
    Жанр: Боевик, Триллер, Драма, Криминал
    Режиссер: Майкл Кейтон-Джонс
    Продюсер: Майкл Кейтон-Джонс, Шон Дэниэл, Джеймс Джекс
    Актеры: Брюс Уиллис, Ричард Гир, Сидни Пуатье, Дайан Венора, Матильда Мэй, Дж.К. Симмонс, Ричард Лайнбэк, Джон Каннингэм, Джек Блэк, Тесс Харпер

    Описание

    Шакал — это кличка. Под ней скрывается один из самых неуловимых преступников международного масштаба, наемный киллер, выполняющий самые сложные задания тех работодателей, кто способен заплатить немалые деньги. После того, как в московском ночном клубе прошла совместная операция американских спецслужб и российской милиции, был убит один из главарей русской мафии, брат покойного обратился к Шакалу и сделал заказ.
    Информация об этом просочилась в ФБР. Стало ясно, что целью киллера является кто-то на самом верху Белого дома. Чтобы остановить Шакала, американцы выпускают из тюрьмы ирландского террориста Деклана Малкуина, у которого свои счеты с Шакалом и который — единственный! — знает наемного убийцу в лицо…

    Возраст: 16+ (зрителям, достигшим 16 лет)
    Рейтинг MPAA: R (лицам до 17 лет обязательно присутствие взрослого)
    Продолжительность: 02: 04: 29
    Качество видео: BDRip 1080р
    Перевод: Профессиональный (многоголосый, закадровый), Авторский (одноголосый, закадровый)
    Субтитры: Русские (Full), Английские (Full)
    Видео : H.264, 1920x816 (2.35: 1), ~10300 kbps, 23.976 fps
    Аудио#1 : AAC, 2.0 ch, 296 Kbps - Русский MVO, R5 Лизард
    Аудио#2 : AAC, 2.0 ch, 296 Kbps - Русский AVO, Ю. Живов
    Аудио#3 : AAC, 2.0 ch, 295 Kbps - Русский AVO, А. Гаврилов
    Аудио#4 : AAC, 2.0 ch, 296 Kbps - Русский AVO, В. Горчаков
    Аудио#5 : AAC, 2.0 ch, 296 Kbps - English Original
    Аудио#6 : AC3, 6.0 ch, 384 Kbps - Русский MVO, R5 Лизард
    Аудио#7 : AC3, 6.0 ch, 448 Kbps - Русский AVO, Ю. Живов
    Аудио#8 : AC3, 6.0 ch, 384 Kbps - Русский AVO, А. Гаврилов
    Аудио#9 : AC3, 6.0 ch, 448 Kbps - Русский AVO, В. Горчаков
    Аудио#10 : AC3, 6.0 ch, 640 Kbps - English, Original Код: выделить все
    Общее
    Полное имя : /Users/The.Jackal.1997.BDRip.1080p.m4v
    Формат : MPEG-4
    Идентификатор кодека : M4V (M4V /M4A /mp42/isom)
    Размер файла : 12, 3 Гбайт
    Продолжительность : 2 ч. 4 м.
    Режим общего битрейта : Переменный
    Общий поток : 14, 1 Мбит/сек
    Название фильма : Шакал
    Исполнитель : Michael Caton-Jones
    Композитор : Carter Burwell
    Режиссёр : Michael Caton-Jones
    Исполнитель : Bruce Willis/Richard Gere/Sidney Poitier/Diane Venora/J.K. Simmons/Jack Black/Sophie Okonedo/Ravil Isyanov/Maggie Castle/Karen Kirschenbauer/Daniel Dae Kim/Jim Grimshaw/Serge Houde/Mathilda May/Richard Lineback/John Cunningham/Tess Harper/Leslie Phillips/Stephen Spinella/David Hayman/Steve Bassett/Yuri Stepanov/Walt MacPherson/Terrence Currier/Michael Caton-Jones/Laura Viederman/Peter Sullivan/Richard Cubison/Gregory Porter Miller/Bob Kingdom/Murphy Guyer/Philip LeMaistre/James McCauley/Terry Loughlin/Victor Sobchak/Serge Christianssens/Boris Boscovic/Ewan Bailey/Danette Alberico/Debra Gano/John Harrington Bland/Pamela Poitier/Jonathan Aris/Eddie Bo Smith Jr./Larry King/Dan Ziskie/Gayle Jessup/Bill Collins/David Gene Gibbs/James M. Helkey
    Сценарист : Chuck Pfarrer/John Greaves
    Продюсер : Michael Caton-Jones/Sean Daniel/James Jacks/Kevin Jarre
    Исполнительный продюсер : Terence A. Clegg, Mark Gordon, Gary Levinsohn, Hal Lieberman
    Студия-производитель : Mel\'s Cite du Cinema, Universal Pictures, Mutual Film Company, Alphaville Films, Tele München Fernseh Produktionsgesellschaft (TMG), UGC PH, Marubeni, Toho-Towa, British Broadcasting Corporation (BBC)
    Жанр : боевик, триллер, приключения, криминал
    Тип содержимого : Short Film
    Дата записи : UTC 1997-11-14 00:00:00
    Дата кодирования : UTC 2018-07-30 05:48:42
    Дата пометки : UTC 2018-07-30 07:14:13
    Обложка : Yes
    LongDescription : Шакал — это кличка. Под ней скрывается один из самых неуловимых преступников международного масштаба, наемный киллер, выполняющий самые сложные задания тех работодателей, кто способен заплатить немалые деньги. После того, как в московском ночном клубе прошла совместная операция американских спецслужб и российской милиции, был убит один из главарей русской мафии, брат покойного обратился к Шакалу и сделал заказ. Информация об этом просочилась в ФБР. Стало ясно, что целью киллера является кто-то на самом верху Белого дома. Чтобы остановить Шакала, американцы выпускают из тюрьмы ирландского террориста Деклана Малкуина, у которого свои счеты с Шакалом и который — единственный! — знает наемного убийцу в лицо…
    ContentRating : mpaa|R|400|
    Видео #1
    Идентификатор : 1
    Формат : AVC
    Формат/Информация : Advanced Video Codec
    Профиль формата :High@L4.1
    Настройки формата : CABAC/5 Ref Frames
    Параметр CABAC формата : Да
    Параметр ReFrames формата : 5 кадров
    Идентификатор кодека : avc1
    Идентификатор кодека/Информация : Advanced Video Coding
    Продолжительность : 2 ч. 4 м.
    Битрейт : 10, 3 Мбит/сек
    Ширина : 1920 пикселей
    Высота : 816 пикселей
    Соотношение сторон : 2, 35:1
    Режим частоты кадров : Переменный
    Частота кадров : 23, 976 (24000/1001) кадра/сек
    Минимальная частота кадров : 23, 810 кадра/сек
    Максимальная частота кадров : 24, 390 кадра/сек
    Цветовое пространство : YUV
    Субдискретизация насыщенности : 4:2:0
    Битовая глубина : 8 бит
    Тип развёртки : Прогрессивная
    Бит/(Пиксели*Кадры) : 0.275
    Размер потока : 8, 97 Гбайт (73%)
    Библиотека кодирования : x264 core 142 r2431 ac76440
    Настройки программы : cabac=1/ref=5/deblock=1:-3:-2/analyse=0x3:0x133/me=umh/subme=11/psy=1/psy_rd=1.00:0.00/mixed_ref=1/me_range=32/chroma_me=1/trellis=2/8x8dct=1/cqm=0/deadzone=21, 11/fast_pskip=0/chroma_qp_offset=-2/threads=12/lookahead_threads=1/sliced_threads=0/nr=0/decimate=1/interlaced=0/bluray_compat=0/constrained_intra=0/bframes=5/b_pyramid=2/b_adapt=2/b_bias=0/direct=3/weightb=1/open_gop=0/weightp=2/keyint=240/keyint_min=23/scenecut=40/intra_refresh=0/rc=2pass/mbtree=0/bitrate=10330/ratetol=2.0/qcomp=0.60/qpmin=0/qpmax=69/qpstep=4/cplxblur=20.0/qblur=0.5/ip_ratio=1.40/pb_ratio=1.30/aq=2:0.90
    Язык : English
    Дата кодирования : UTC 2018-07-30 05:48:42
    Дата пометки : UTC 2018-07-30 07:12:58
    Menus : 14, 15
    Видео #2
    Идентификатор : 15
    Формат : JPEG
    Идентификатор кодека : jpeg
    Продолжительность : 2 ч. 4 м.
    Вид битрейта : Переменный
    Битрейт : 1061 бит/сек
    Ширина : 640 пикселей
    Высота : 272 пикселя
    Соотношение сторон : 2, 35:1
    Режим частоты кадров : Переменный
    Частота кадров : 0, 004 кадр/сек
    Минимальная частота кадров : 0, 002 кадр/сек
    Максимальная частота кадров : 0, 025 кадр/сек
    Цветовое пространство : YUV
    Субдискретизация насыщенности : 4:2:0
    Битовая глубина : 8 бит
    Метод сжатия : С потерями
    Бит/(Пиксели*Кадры) : 1.524
    Размер потока : 1003 Кбайт (0%)
    Язык : English
    Default : Нет
    Дата кодирования : UTC 2018-07-30 07:14:12
    Дата пометки : UTC 2018-07-30 07:14:13
    Menu For : 1
    ColorSpace_ICC : RGB
    Аудио #1
    Идентификатор : 2
    Формат : AAC
    Формат/Информация : Advanced Audio Codec
    Профиль формата : LC
    Идентификатор кодека : mp4a-40-2
    Продолжительность : 2 ч. 4 м.
    Вид битрейта : Переменный
    Битрейт : 296 Кбит/сек
    Максимальный битрейт : 499 Кбит/сек
    Каналы : 2 канала
    Расположение каналов : Front: L R
    Частота : 48, 0 КГц
    Частота кадров : 46, 875 кадров/сек (1024 SPF)
    Метод сжатия : С потерями
    Размер потока : 263 Мбайт (2%)
    Язык : Russian
    Default : Да
    Alternate group : 1
    Дата кодирования : UTC 2018-07-30 05:48:42
    Дата пометки : UTC 2018-07-30 07:12:58
    Fallback From : 7
    tagc : public.main-program-content
    Аудио #2
    Идентификатор : 3
    Формат : AAC
    Формат/Информация : Advanced Audio Codec
    Профиль формата : LC
    Идентификатор кодека : mp4a-40-2
    Продолжительность : 2 ч. 4 м.
    Вид битрейта : Переменный
    Битрейт : 296 Кбит/сек
    Максимальный битрейт : 496 Кбит/сек
    Каналы : 2 канала
    Расположение каналов : Front: L R
    Частота : 48, 0 КГц
    Частота кадров : 46, 875 кадров/сек (1024 SPF)
    Метод сжатия : С потерями
    Размер потока : 263 Мбайт (2%)
    Язык : Russian
    Default : Нет
    Alternate group : 1
    Дата кодирования : UTC 2018-07-30 05:48:42
    Дата пометки : UTC 2018-07-30 07:12:58
    Fallback From : 8
    tagc : public.auxiliary-content
    Аудио #3
    Идентификатор : 4
    Формат : AAC
    Формат/Информация : Advanced Audio Codec
    Профиль формата : LC
    Идентификатор кодека : mp4a-40-2
    Продолжительность : 2 ч. 4 м.
    Вид битрейта : Переменный
    Битрейт : 295 Кбит/сек
    Максимальный битрейт : 489 Кбит/сек
    Каналы : 2 канала
    Расположение каналов : Front: L R
    Частота : 48, 0 КГц
    Частота кадров : 46, 875 кадров/сек (1024 SPF)
    Метод сжатия : С потерями
    Размер потока : 263 Мбайт (2%)
    Язык : Russian
    Default : Нет
    Alternate group : 1
    Дата кодирования : UTC 2018-07-30 05:48:42
    Дата пометки : UTC 2018-07-30 07:12:58
    Fallback From : 9
    tagc : public.auxiliary-content
    Аудио #4
    Идентификатор : 5
    Формат : AAC
    Формат/Информация : Advanced Audio Codec
    Профиль формата : LC
    Идентификатор кодека : mp4a-40-2
    Продолжительность : 2 ч. 4 м.
    Вид битрейта : Переменный
    Битрейт : 296 Кбит/сек
    Максимальный битрейт : 491 Кбит/сек
    Каналы : 2 канала
    Расположение каналов : Front: L R
    Частота : 48, 0 КГц
    Частота кадров : 46, 875 кадров/сек (1024 SPF)
    Метод сжатия : С потерями
    Размер потока : 263 Мбайт (2%)
    Язык : Russian
    Default : Нет
    Alternate group : 1
    Дата кодирования : UTC 2018-07-30 05:48:42
    Дата пометки : UTC 2018-07-30 07:12:58
    Fallback From : 10
    tagc : public.auxiliary-content
    Аудио #5
    Идентификатор : 6
    Формат : AAC
    Формат/Информация : Advanced Audio Codec
    Профиль формата : LC
    Идентификатор кодека : mp4a-40-2
    Продолжительность : 2 ч. 4 м.
    Вид битрейта : Переменный
    Битрейт : 296 Кбит/сек
    Максимальный битрейт : 497 Кбит/сек
    Каналы : 2 канала
    Расположение каналов : Front: L R
    Частота : 48, 0 КГц
    Частота кадров : 46, 875 кадров/сек (1024 SPF)
    Метод сжатия : С потерями
    Размер потока : 264 Мбайт (2%)
    Язык : English
    Default : Нет
    Alternate group : 1
    Дата кодирования : UTC 2018-07-30 05:48:42
    Дата пометки : UTC 2018-07-30 07:12:58
    Fallback From : 11
    tagc : public.main-program-content
    Аудио #6
    Идентификатор : 7
    Формат : AC-3
    Формат/Информация : Audio Coding 3
    Идентификатор кодека : ac-3
    Продолжительность : 2 ч. 4 м.
    Вид битрейта : Постоянный
    Битрейт : 384 Кбит/сек
    Каналы : 6 каналов
    Расположение каналов : Front: L C R, Side: L R, LFE
    Частота : 48, 0 КГц
    Частота кадров : 31, 250 кадров/сек (1536 SPF)
    Битовая глубина : 16 бит
    Метод сжатия : С потерями
    Размер потока : 341 Мбайт (3%)
    Язык : Russian
    Service kind : Complete Main
    Default : Inherited From: 2
    Alternate group : 1
    Дата кодирования : UTC 2018-07-30 05:48:42
    Дата пометки : UTC 2018-07-30 07:12:58
    Fallback To : 2
    tagc : public.main-program-content
    Аудио #7
    Идентификатор : 8
    Формат : AC-3
    Формат/Информация : Audio Coding 3
    Идентификатор кодека : ac-3
    Продолжительность : 2 ч. 4 м.
    Вид битрейта : Постоянный
    Битрейт : 448 Кбит/сек
    Каналы : 6 каналов
    Расположение каналов : Front: L C R, Side: L R, LFE
    Частота : 48, 0 КГц
    Частота кадров : 31, 250 кадров/сек (1536 SPF)
    Битовая глубина : 16 бит
    Метод сжатия : С потерями
    Размер потока : 399 Мбайт (3%)
    Язык : Russian
    Service kind : Complete Main
    Default : Нет
    Alternate group : 1
    Дата кодирования : UTC 2018-07-30 05:48:42
    Дата пометки : UTC 2018-07-30 07:12:58
    Fallback To : 3
    tagc : public.auxiliary-content
    Аудио #8
    Идентификатор : 9
    Формат : AC-3
    Формат/Информация : Audio Coding 3
    Идентификатор кодека : ac-3
    Продолжительность : 2 ч. 4 м.
    Вид битрейта : Постоянный
    Битрейт : 384 Кбит/сек
    Каналы : 6 каналов
    Расположение каналов : Front: L C R, Side: L R, LFE
    Частота : 48, 0 КГц
    Частота кадров : 31, 250 кадров/сек (1536 SPF)
    Битовая глубина : 16 бит
    Метод сжатия : С потерями
    Размер потока : 342 Мбайт (3%)
    Язык : Russian
    Service kind : Complete Main
    Default : Нет
    Alternate group : 1
    Дата кодирования : UTC 2018-07-30 05:48:42
    Дата пометки : UTC 2018-07-30 07:12:58
    Fallback To : 4
    tagc : public.auxiliary-content
    Аудио #9
    Идентификатор : 10
    Формат : AC-3
    Формат/Информация : Audio Coding 3
    Идентификатор кодека : ac-3
    Продолжительность : 2 ч. 4 м.
    Вид битрейта : Постоянный
    Битрейт : 448 Кбит/сек
    Каналы : 6 каналов
    Расположение каналов : Front: L C R, Side: L R, LFE
    Частота : 48, 0 КГц
    Частота кадров : 31, 250 кадров/сек (1536 SPF)
    Битовая глубина : 16 бит
    Метод сжатия : С потерями
    Размер потока : 398 Мбайт (3%)
    Язык : Russian
    Service kind : Complete Main
    Default : Нет
    Alternate group : 1
    Дата кодирования : UTC 2018-07-30 05:48:42
    Дата пометки : UTC 2018-07-30 07:12:58
    Fallback To : 5
    tagc : public.auxiliary-content
    Аудио #10
    Идентификатор : 11
    Формат : AC-3
    Формат/Информация : Audio Coding 3
    Идентификатор кодека : ac-3
    Продолжительность : 2 ч. 4 м.
    Вид битрейта : Постоянный
    Битрейт : 640 Кбит/сек
    Каналы : 6 каналов
    Расположение каналов : Front: L C R, Side: L R, LFE
    Частота : 48, 0 КГц
    Частота кадров : 31, 250 кадров/сек (1536 SPF)
    Битовая глубина : 16 бит
    Метод сжатия : С потерями
    Размер потока : 570 Мбайт (5%)
    Язык : English
    Service kind : Complete Main
    Default : Нет
    Alternate group : 1
    Дата кодирования : UTC 2018-07-30 05:48:42
    Дата пометки : UTC 2018-07-30 07:12:58
    Fallback To : 6
    tagc : public.main-program-content
    Текст #1
    Идентификатор : 12
    Формат : Timed Text
    Режим смешивания : sbtl
    Идентификатор кодека : tx3g
    Продолжительность : 1 ч. 58 м.
    Вид битрейта : Переменный
    Битрейт : 62 бит/сек
    Размер потока : 53, 6 Кбайт (0%)
    Язык : Russian
    Default : Да
    Forced : Нет
    Alternate group : 2
    Дата кодирования : UTC 2018-07-30 05:48:42
    Дата пометки : UTC 2018-07-30 07:12:58
    tagc : public.main-program-content
    Текст #2
    Идентификатор : 13
    Формат : Timed Text
    Режим смешивания : sbtl
    Идентификатор кодека : tx3g
    Продолжительность : 2 ч. 0 м.
    Вид битрейта : Переменный
    Битрейт : 52 бит/сек
    Размер потока : 45, 4 Кбайт (0%)
    Язык : English
    Default : Нет
    Forced : Нет
    Alternate group : 2
    Дата кодирования : UTC 2018-07-30 05:48:42
    Дата пометки : UTC 2018-07-30 07:12:58
    tagc : public.main-program-content
    Меню
    Идентификатор : 14
    Идентификатор кодека : text
    Продолжительность : 2 ч. 4 м.
    Язык : English
    Дата кодирования : UTC 2018-07-30 07:12:58
    Дата пометки : UTC 2018-07-30 07:12:58
    Menu For : 1
    00:00:00.000 : Main Titles
    00:03:41.012 : Blood is the Witness
    00:08:08.946 : Debts to Pay
    00:10:05.646 : The Assassin
    00:12:21.866 : Terek\'s Men
    00:14:39.503 : The Assassin Prepares
    00:18:21.183 : Who is the Jackal?
    00:20:23.013 : Montreal
    00:22:25.135 : The Terrorist\'s Deal
    00:32:07.550 : Isabella
    00:38:58.961 : Just One Guy
    00:41:24.773 : A Little Faith
    00:45:13.168 : The Compromised Shipment
    00:51:46.561 : Good Guys Don\'t Hide
    00:53:28.496 : The Bonus
    00:55:11.766 : The Test
    00:57:00.542 : The Real Test
    01:03:39.774 : Deja Vu
    01:07:16.532 : The Regatta
    01:15:56.843 : The Inside Man
    01:18:35.836 : Witherspoon\'s Mistake
    01:24:46.289 : Black Blood
    01:30:38.266 : The House Guest
    01:34:02.762 : The Real Target
    01:38:15.848 : To Find a Killer
    01:43:00.424 : The Jackal Strikes
    01:45:03.463 : The Subway
    01:50:19.195 : Declan\'s Decision
    01:52:51.054 : Judgment Day
    01:53:31.679 : Dead and Gone
    01:56:22.433 : End Titles
    Вид битрейта : VBR



    Шакал/The Jackal (1997) BDRip [1080p] ATV
    Рейтинг →
     (голосов: 1, оценка 3/5, голосовать можно 1 раз )

    Другие торренты по теме:

  • Шакал / The Jackal (1997) BDRip [H.264 / 1080p] скачать через торрент бесплатно
  • Шакал / The Jackal (1997) BDRip [H.264 / 1080p-LQ]
  • Шакал / The Jackal (1997) BDRip [H.265 / 1080p-LQ] [MVO]
  • Шакал / The Jackal (1997) BDRip [H.264 / 720p]
  • Шакал / The Jackal (1997) AC3 5.1 [hand made]


    • Комментарии (0):

      Информация

      Информация

        Посетители, находящиеся в группе Гости, не могут оставлять комментарии в данной новости.

        ↓ Меню




        ↓ Опрос

        Вы добавили сайт в закладки?
        Да
        Нет


        Популярное