.
Авторизация | Регистрация

Торрент скачать бесплатно

» » Домашний арест (2018) WEB-DL [1080p] (сезон 1, серии 1-12 из 12) ATV торрент скачать бесплатно


    Домашний арест (2018) WEB-DL [1080p] (сезон 1, серии 1-12 из 12) ATV торрент скачать бесплатно

    Дата: 27-10-2018, 05:00 | .torrent скачали: 2942

    Домашний арест (2018) WEB-DL [1080p] (сезон 1, серии 1-12 из 12) ATVПроизводство: Россия/Comedy Club Production
    Жанр: Комедия
    Режиссер: Петр Буслов
    Продюсер: Семен Слепаков, Александр Дулерайн, Артур Джанибекян
    Актеры: Павел Деревянко, Александр Робак, Егор Клинаев, Юлия Сорокина, Анна Уколова, Тимофей Трибунцев, Марина Александрова, Сергей Бурунов, Илья Коврижных, Виктория Самилкина, Анатолий Кот

    Описание

    Мэр небольшого города попался на взятке и в качестве меры пресечения ему назначен домашний арест по месту прописки. Коллизия в том, что, чтобы казаться скромнее, чиновник прописан не в своем особняке, а в коммунальной квартире, в которой когда-то родился и вырос. Так он попадает в коммунальный ад своей старой квартиры. Он больше не главный и сам в свою очередь оказывается во власти простых обитателей коммуналки.

    Возраст: 16+ (зрителям, достигшим 16 лет)
    Дата российской премьеры: 16 августа 2018
    Продолжительность: ~01: 10: 00 серия
    Качество видео: WEB-DL 1080р
    Перевод: Не требуется
    Субтитры: Отсутствуют
    Видео : H.264, 1920x1080 (16: 9), ~5000 kbps, 25.000 fps
    Аудиo : AAC, 2.0 ch, 174 Kbps - Русский
    Код: выделить все

    Общее
    Полное имя : /Users/NNM-CLUB/Домашний.арест.(1 сезон).2018.WEB-DL.1080p/Серия.01.m4v
    Формат : MPEG-4
    Идентификатор кодека : M4V (M4V /M4A /mp42/isom)
    Размер файла : 2, 33 Гбайт
    Продолжительность : 1 ч. 7 м.
    Режим общего битрейта : Переменный
    Общий поток : 4945 Кбит/сек
    Коллекция : Домашний арест
    Сезон : 1
    Альбом : Домашний арест, Season 1
    Часть : 1
    Трек : Выборы
    Трек/Положение : 1
    Исполнитель : Домашний арест
    Режиссёр : Пётр Буслов
    Исполнитель : Павел Деревянко/Александр Робак/Егор Клинаев/Юлия Сорокина/Анна Уколова/Тимофей Трибунцев/Марина Александрова/Сергей Бурунов/Илья Коврижных/Виктория Самилкина/Роман Мадянов/Светлана Ходченкова/Олеся Судзиловская
    Сценарист : Семен Слепаков
    Жанр : Comedy
    Тип содержимого : TV Show
    Описание : Мэр города Синеозерска Аркадий Аникеев живет в свое удовольствие. Но однажды он попадается на взятке, и суд отправляет его под домашний арест. Но не в его роскошный особняк. а в коммунальную квартиру, в которой он родился, вырос и был прописан. Помимо…/Мэр небольшого города попался на взятке и в качестве меры пресечения ему назначен домашний арест по месту прописки. Коллизия в том, что, чтобы казаться скромнее, чиновник прописан не в своем особняке, а в коммунальной квартире, в которой когда-то родился и вырос. Так он попадает в коммунальный ад своей старой квартиры. Он больше не главный и сам в свою очередь оказывается во власти простых обитателей коммуналки.
    Дата записи : UTC 2018-08-16 00:00:00
    Дата кодирования : UTC 2018-10-25 12:39:45
    Дата пометки : UTC 2018-10-25 12:40:47
    Обложка : Yes
    TVNetworkName : ТНТ
    Part_ID : 101
    LongDescription : Мэр города Синеозерска Аркадий Аникеев живет в свое удовольствие. Но однажды он попадается на взятке, и суд отправляет его под домашний арест. Но не в его роскошный особняк. а в коммунальную квартиру, в которой он родился, вырос и был прописан. Помимо того, что мэр уже давно отвык от коммунальных условий. В квартире его ждут жильцы, с которыми у него сложились не самые теплые отношения…
    Видео
    Идентификатор : 1
    Формат : AVC
    Формат/Информация : Advanced Video Codec
    Профиль формата : Baseline@L4
    Настройки формата : 4 Ref Frames
    Параметр CABAC формата : Нет
    Параметр ReFrames формата : 4 кадра
    Параметр GOP формата : M=1, N=50
    Идентификатор кодека : avc1
    Идентификатор кодека/Информация : Advanced Video Coding
    Продолжительность : 1 ч. 7 м.
    Вид битрейта : Постоянный
    Битрейт : 5000 Кбит/сек
    Ширина : 1920 пикселей
    Высота : 1080 пикселей
    Соотношение сторон : 16:9
    Режим частоты кадров : Постоянный
    Частота кадров : 25, 000 кадров/сек
    Стандарт вещания : PAL
    Цветовое пространство : YUV
    Субдискретизация насыщенности : 4:2:0
    Битовая глубина : 8 бит
    Тип развёртки : Прогрессивная
    Бит/(Пиксели*Кадры) : 0.096
    Размер потока : 2, 25 Гбайт (96%)
    Язык : Russian
    Дата кодирования : UTC 2018-10-25 12:39:45
    Дата пометки : UTC 2018-10-25 12:40:46
    Цветовой диапазон : Limited
    Основные цвета : BT.709
    Характеристики трансфера : BT.709
    Коэффициенты матрицы : BT.709
    Codec configuration box : avcC
    Аудио
    Идентификатор : 2
    Формат : AAC LC
    Формат/Информация : Advanced Audio Codec Low Complexity
    Идентификатор кодека : mp4a-40-2
    Продолжительность : 1 ч. 7 м.
    Вид битрейта : Переменный
    Битрейт : 174 Кбит/сек
    Максимальный битрейт : 200 Кбит/сек
    Каналы : 2 канала
    Channel layout : L R
    Частота : 48, 0 КГц
    Частота кадров : 46, 875 кадров/сек (1024 SPF)
    Метод сжатия : С потерями
    Размер потока : 84, 0 Мбайт (4%)
    Язык : Russian
    Default : Да
    Alternate group : 1
    Дата кодирования : UTC 2018-10-25 12:39:45
    Дата пометки : UTC 2018-10-25 12:40:47
    tagc : public.main-program-content



    Домашний арест (2018) WEB-DL [1080p] (сезон 1, серии 1-12 из 12) ATV
    Рейтинг →
     (голосов: 1, оценка 5/5, голосовать можно 1 раз )

    Другие торренты по теме:

  • Домашний арест / House Arrest (1996) DVDRip [H.264]
  • Домашний арест (2018) WEB-DLRip (серии 1 из 16) (обновляемая)
  • Домашний арест (2018) WEB-DLRip [H.264 / 1080p-LQ] (серии 1 из 16) (обновляемая)
  • Домашний арест (2018) WEB-DLRip [H.264 / 1080p-LQ] (серии 2-3 из 16) (обновляемая) [AD] [PR]
  • Домашний арест (2018) WEB-DL [H.264 / 720p-LQ] (серии 1-7 из 16) (обновляемая)
  • Домашний арест (2018) WEB-DLRip [H.264] (серии 1-7 из 16) (обновляемая)
  • Домашний арест. Фильм о съёмках (2018) WEB-DL [H.264 / 1080p-LQ] (выпуски 1-22 из 22)


    • Комментарии (0):

      Информация

      Информация

        Посетители, находящиеся в группе Гости, не могут оставлять комментарии в данной новости.

        ↓ Меню




        ↓ Опрос

        Вы добавили сайт в закладки?
        Да
        Нет


        Top 10 за месяц (Программы)