.
Авторизация | Регистрация

Торрент скачать бесплатно

» » Некромант / Nekrotronic (2018) WEB-DL [1080p] ATV торрент скачать бесплатно


    Некромант / Nekrotronic (2018) WEB-DL [1080p] ATV торрент скачать бесплатно

    Дата: 14-08-2019, 05:00 | .torrent скачали: 0

    Некромант / Nekrotronic (2018) WEB-DL [1080p] ATVПроизводство : Австралия, Guerilla Films, Hopscotch Features
    Жанр : Ужасы, комедия, фэнтези, фантастика
    Режиссер : Кия Роуч-Тернер
    Продюсер : Трой Льюм, Эндрю Мэйсон, Тристан Роуч-Тернер
    Актеры : Бен О’Тул, Моника Беллуччи, Боб Савеа, Кэролайн Форд, Тесс Хобрич, Дэвид Бимиш, Чармэйн Бингва, Уилльям Чун, Майкл Дункан, Аллира Гибсон
    Описание : На заре человеческой цивилизации древние люди, принося кровавые жертвы, открыли в этот мир дорогу демонам, цель которых — вселяться в людей и творить зло. Вместе с демонами появились и охотники на них, некроманты. Двое работяг Хауи и Рэнджи отправляются на внеплановую переработку, когда один из них, активировав странную игру в телефоне, внезапно пробуждает в другом способность видеть призраков. Вскоре выяснится, что Хауи — потомок древних династий некромантов, и теперь ему придется примкнуть к немногим оставшимся в живых охотникам за демонами и противостоять могущественной пожирательнице душ, которая использует для своих зловещих целей интернет.

    Возраст: 16+ Зрителям, достигшим 16 лет
    Рейтинг MPAA: R Лицам до 17 обязательно присутствие взрослых
    Дата мировой премьеры: 8 сентября 2018
    Дата российской премьеры: 25 июля 2019
    Релиз от: Kosatka
    Продолжительность : 01: 36: 43
    Качество видео : WEB-DL 1080p AMZN
    Перевод: Дублированный(iTunes)
    Субтитры: Английские (Full, SDH)
    Видео: AVC/H.264, 1920x800, 9 115 Kbps, 23.976 fps
    Аудио 1 : AAC, 2.0 ch, 160 Kbps | Русский
    Аудио 2 : AAC, 2.0 ch, 160 Kbps | Английский
    Аудио 3 : AC-3, 6 ch, 384 Kbps | Русский
    Аудио 4 : AC-3, 6 ch, 640 Kbps | Английский

    Sort Name: Nekrotronic
    XID: Apple: vendor_id: 2018-1061064
    contentID: 1474305380
    Copyright: © 2018 Entertainment One Film USA LLC. All Rights Reserved.
    Screenwriters: Кия Роуч-Тернер, Тристан Роуч-Тернер
    Producers: Трой Льюм, Эндрю Мэйсон, Тристан Роуч-Тернер
    Director: Кия Роуч-Тернер
    Cast: Владимир Машков, Александра Бортич, Гела Месхи, Павел Чинарёв, Марина Петренко, Мария Миронова, Даниил Спиваковский, Григорий Калинин, Федор Бавтриков, Дмитрий Астрахан и др.
    Studio: eOne
    Rating: 5
    Long Description: На заре человеческой цивилизации древние люди, принося кровавые жертвы, открыли в этот мир дорогу демонам, цель которых — вселяться в людей и творить зло. Вместе с демонами появились и охотники на них, некроманты. Двое работяг Хауи и Рэнджи отправляются на внеплановую переработку, когда один из них, активировав странную игру в телефоне, внезапно пробуждает в другом способность видеть призраков. Вскоре выяснится, что Хауи — потомок древних династий некромантов, и теперь ему придется примкнуть к немногим оставшимся в живых охотникам за демонами и противостоять могущественной пожирательнице душ, которая использует для своих зловещих целей интернет.
    Description: На заре человеческой цивилизации древние люди, принося кровавые жертвы, открыли в этот мир дорогу демонам, цель которых — вселяться в людей и творить зло. Вместе с демонами появились и охотники на них, некроманты.
    Release Date: 2019-08-09T07: 00: 00Z
    Genre: Horror
    Artist: Kiah Roache-Turner
    Name: Nekrotronic

    General
    Complete name : /Users/imac/HandBrake/Nekrotronic.WEB-DL.1080p.AMZN.m4v
    Format : MPEG-4
    Codec ID : M4V (M4V /M4A /mp42/isom)
    File size : 7.07 GiB
    Duration : 1h 36mn
    Overall bit rate mode : Variable
    Overall bit rate : 10.5 Mbps
    Movie name : Nekrotronic
    Performer : Kiah Roache-Turner
    Director : Кия Роуч-Тернер
    Actor : Владимир Машков/Александра Бортич/Гела Месхи/Павел Чинарёв/Марина Петренко/Мария Миронова/Даниил Спиваковский/Григорий Калинин/Федор Бавтриков/Дмитрий Астрахан и др.
    Screenplay by : Кия Роуч-Тернер/Тристан Роуч-Тернер
    Producer : Трой Льюм/Эндрю Мэйсон/Тристан Роуч-Тернер
    Production studio : eOne
    Genre : Horror
    ContentType : Short Film
    Description : На заре человеческой цивилизации древние люди, принося кровавые жертвы, открыли в этот мир дорогу демонам, цель которых — вселяться в людей и творить зло. Вместе с демонами появились и охотники на них, некроманты.
    Recorded date : UTC 2019-08-09 07: 00: 00
    Encoded date : UTC 2019-08-12 23: 12: 01
    Tagged date : UTC 2019-08-12 23: 13: 08
    Copyright : © 2018 Entertainment One Film USA LLC. All Rights Reserved.
    Cover : Yes
    Rating : None
    Title/Sort : Nekrotronic
    LongDescription : На заре человеческой цивилизации древние люди, принося кровавые жертвы, открыли в этот мир дорогу демонам, цель которых — вселяться в людей и творить зло. Вместе с демонами появились и охотники на них, некроманты. Двое работяг Хауи и Рэнджи отправляются на внеплановую переработку, когда один из них, активировав странную игру в телефоне, внезапно пробуждает в другом способность видеть призраков. Вскоре выяснится, что Хауи — потомок древних династий некромантов, и теперь ему придется примкнуть к немногим оставшимся в живых охотникам за демонами и противостоять могущественной пожирательнице душ, которая использует для своих зловещих целей интернет.
    AppleStoreCatalogID : 1474305380
    Vendor : Apple: vendor_id: 2018-1061064
    ContentRating : mpaa|R|400|
    Video #1
    ID : 1
    Format : AVC
    Format/Info : Advanced Video Codec
    Format profile : High@L4
    Format settings : CABAC/4 Ref Frames
    Format settings, CABAC : Yes
    Format settings, ReFrames : 4 frames
    Codec ID : avc1
    Codec ID/Info : Advanced Video Coding
    Duration : 1h 36mn
    Bit rate mode : Constant
    Bit rate : 9 115 Kbps
    Nominal bit rate : 10 000 Kbps
    Width : 1 920 pixels
    Height : 800 pixels
    Display aspect ratio : 2.40: 1
    Frame rate mode : Variable
    Frame rate : 23.976 (24000/1001) fps
    Minimum frame rate : 23.810 fps
    Maximum frame rate : 24.390 fps
    Color space : YUV
    Chroma subsampling : 4: 2: 0
    Bit depth : 8 bits
    Scan type : Progressive
    Bits/(Pixel*Frame) : 0.248
    Stream size : 6.16 GiB (87%)
    Title : Main Program
    Language : English
    Encoded date : UTC 2019-08-12 23: 12: 01
    Tagged date : UTC 2019-08-12 23: 12: 12
    Color range : Limited
    Color primaries : BT.709
    Transfer characteristics : BT.709
    Matrix coefficients : BT.709
    Menus : 8, 9
    Codec configuration box : avcC
    Video #2
    ID : 9
    Format : JPEG
    Codec ID : jpeg
    Duration : 1h 36mn
    Bit rate mode : Variable
    Bit rate : 290 bps
    Width : 640 pixels
    Height : 266 pixels
    Display aspect ratio : 2.40: 1
    Frame rate mode : Constant
    Frame rate : 0.001 fps
    Color space : YUV
    Chroma subsampling : 4: 2: 0
    Bit depth : 8 bits
    Compression mode : Lossy
    Bits/(Pixel*Frame) : 1.703
    Stream size : 354 KiB (0%)
    Title : Chapter Images
    Language : English
    Default : No
    Encoded date : UTC 2019-08-12 23: 12: 18
    Tagged date : UTC 2019-08-12 23: 12: 18
    Menu For : 1
    ColorSpace_ICC : RGB
    Audio #1
    ID : 2
    Format : AAC LC
    Format/Info : Advanced Audio Codec Low Complexity
    Codec ID : mp4a-40-2
    Duration : 1h 36mn
    Source duration : 1h 36mn
    Bit rate mode : Variable
    Bit rate : 158 Kbps
    Maximum bit rate : 230 Kbps
    Channel(s) : 2 channels
    Channel layout : L R
    Sampling rate : 48.0 KHz
    Frame rate : 46.875 fps (1024 SPF)
    Compression mode : Lossy
    Stream size : 109 MiB (2%)
    Source stream size : 109 MiB (2%)
    Title : Russian Stereo
    Language : Russian
    Default : Yes
    Alternate group : 1
    Encoded date : UTC 2019-08-12 23: 12: 01
    Tagged date : UTC 2019-08-12 23: 12: 14
    Fallback From : 4
    Audio #2
    ID : 3
    Format : AAC LC
    Format/Info : Advanced Audio Codec Low Complexity
    Codec ID : mp4a-40-2
    Duration : 1h 36mn
    Source duration : 1h 36mn
    Bit rate mode : Variable
    Bit rate : 159 Kbps
    Maximum bit rate : 265 Kbps
    Channel(s) : 2 channels
    Channel layout : L R
    Sampling rate : 48.0 KHz
    Frame rate : 46.875 fps (1024 SPF)
    Compression mode : Lossy
    Stream size : 110 MiB (2%)
    Source stream size : 110 MiB (2%)
    Title : English Stereo
    Language : English
    Default : No
    Alternate group : 1
    Encoded date : UTC 2019-08-12 23: 12: 01
    Tagged date : UTC 2019-08-12 23: 12: 14
    Fallback From : 5
    Audio #3
    ID : 4
    Format : AC-3
    Format/Info : Audio Coding 3
    Commercial name : Dolby Digital
    Codec ID : ac-3
    Duration : 1h 36mn
    Bit rate mode : Constant
    Bit rate : 384 Kbps
    Channel(s) : 6 channels
    Channel layout : L R C LFE Ls Rs
    Sampling rate : 48.0 KHz
    Frame rate : 31.250 fps (1536 SPF)
    Bit depth : 16 bits
    Compression mode : Lossy
    Stream size : 266 MiB (4%)
    Title : Russian DD 5.1
    Language : Russian
    Service kind : Complete Main
    Default : Inherited From: 2
    Alternate group : 1
    Encoded date : UTC 2019-08-12 23: 12: 01
    Tagged date : UTC 2019-08-12 23: 12: 12
    Fallback To : 2
    Audio #4
    ID : 5
    Format : AC-3
    Format/Info : Audio Coding 3
    Commercial name : Dolby Digital
    Codec ID : ac-3
    Duration : 1h 36mn
    Bit rate mode : Constant
    Bit rate : 640 Kbps
    Channel(s) : 6 channels
    Channel layout : L R C LFE Ls Rs
    Sampling rate : 48.0 KHz
    Frame rate : 31.250 fps (1536 SPF)
    Bit depth : 16 bits
    Compression mode : Lossy
    Stream size : 443 MiB (6%)
    Title : English DD 5.1
    Language : English
    Service kind : Complete Main
    Default : No
    Alternate group : 1
    Encoded date : UTC 2019-08-12 23: 12: 01
    Tagged date : UTC 2019-08-12 23: 12: 12
    Fallback To : 3
    Text #1
    ID : 6
    Format : Timed Text
    Muxing mode : sbtl
    Codec ID : tx3g
    Duration : 1h 31mn
    Bit rate mode : Variable
    Bit rate : 45 bps
    Stream size : 30.1 KiB (0%)
    Title : English full
    Language : English
    Default : Yes
    Forced : No
    Alternate group : 2
    Encoded date : UTC 2019-08-12 23: 12: 01
    Tagged date : UTC 2019-08-12 23: 12: 12
    Text #2
    ID : 7
    Format : Timed Text
    Muxing mode : sbtl
    Codec ID : tx3g
    Duration : 1h 31mn
    Bit rate mode : Variable
    Bit rate : 56 bps
    Stream size : 37.5 KiB (0%)
    Title : English SDH
    Language : English
    Default : No
    Forced : No
    Alternate group : 2
    Encoded date : UTC 2019-08-12 23: 12: 01
    Tagged date : UTC 2019-08-12 23: 12: 12
    Menu #1
    00: 00: 00.000 : Chapter 1
    00: 09: 52.592 : Chapter 2
    00: 17: 47.316 : Chapter 3
    00: 27: 43.787 : Chapter 4
    00: 38: 33.102 : Chapter 5
    00: 47: 39.481 : Chapter 6
    00: 59: 19.806 : Chapter 7
    01: 11: 30.036 : Chapter 8
    01: 20: 49.553 : Chapter 9
    01: 29: 32.200 : Chapter 10
    Menu #2
    ID : 8
    Codec ID : text
    Duration : 1h 36mn
    Language : English
    Encoded date : UTC 2019-08-12 23: 12: 14
    Tagged date : UTC 2019-08-12 23: 12: 14
    Menu For : 1
    00: 00: 00.000 : Chapter 1
    00: 09: 52.592 : Chapter 2
    00: 17: 47.316 : Chapter 3
    00: 27: 43.787 : Chapter 4
    00: 38: 33.102 : Chapter 5
    00: 47: 39.481 : Chapter 6
    00: 59: 19.806 : Chapter 7
    01: 11: 30.036 : Chapter 8
    01: 20: 49.553 : Chapter 9
    01: 29: 32.200 : Chapter 10
    Скриншоты :


    Все одноименные релизы в Клубе
    Время раздачи: 24/7 (круглосуточно)


    Релиз подготовлен для просмотра наApple TV, iPad, iPhone, iPod Touch.
    Для просмотра данного релиза на компьютере с ОС Windows рекомендуется использоватьVLC media player


    Некромант/Nekrotronic (2018) WEB-DL [1080p] ATV
    Рейтинг →
     (голосов: 1, оценка 5/5, голосовать можно 1 раз )

    Другие торренты по теме:

  • Некромант / Nekrotronic (2018) WEB-DLRip
  • Некромант / Nekrotronic (2018) WEB-DL [H.264 / 1080p]
  • Некромант / Nekrotronic (2018) WEB-DLRip [H.265 / 720p-LQ] [10-bit]
  • Некромант / Nekrotronic (2018) WEB-DLRip [H.265] [10-bit]


    • Комментарии (0):

      Информация

      Информация

        Посетители, находящиеся в группе Гости, не могут оставлять комментарии в данной новости.

        ↓ Меню




        ↓ Опрос

        Вы добавили сайт в закладки?
        Да
        Нет


        Top 10 за месяц (Программы)