.
Авторизация | Регистрация

bitok.xyz

» » Приключения Реми / Remi sans famille (2018) BDRip [720p] ATV торрент скачать бесплатно


    Приключения Реми / Remi sans famille (2018) BDRip [720p] ATV торрент скачать бесплатно

    Дата: 28-09-2019, 05:00 | .torrent скачали: 0

    Приключения Реми / Remi sans famille (2018) BDRip [720p] ATVПроизводство : Франция, Ciné, Jerico и др.
    Жанр : Мелодрама, приключения
    Режиссер : Антуан Блоссье
    Продюсер : Эрик Йехельманн, Филипп Руссле, Фабрис Джанферми
    Актеры : Малом Пакуин, Даниель Отой, Виржини Ледуайен, Жонатан Заккаи, Жак Перрен, Людивин Санье, Альбан Массон, Зои Бойл, Николас Роу, Никола Даффетт
    Описание : Удивительное путешествие по Франции маленького Реми в компании уличного музыканта, обезьянки и цирковой собаки. Вместе им предстоит пережить неожиданные встречи, приключения и испытания, чтобы раскрыть тайну происхождения мальчика.

    Возраст: 6+ (зрителям, достигшим 6 лет)
    Дата мировой премьеры: 30 сентября 2018
    Дата российской премьеры: 25 июля 2019, Пионер
    Цифровой релиз: 16 сентября 2019, Веста
    Релиз от: Kosatka
    Продолжительность : 01: 48: 11
    Качество видео : BDRip 720p
    Перевод: Дублированный(iTunes)
    Субтитры: Английские
    Видео: AVC/H.264, 1280x544, 3 500 Kbps, 23.976 fps
    Аудио 1 : AAC, 2.0 ch, 160 Kbps | Русский
    Аудио 2 : AAC, 2.0 ch, 160 Kbps | Французский
    Аудио 3 : AC-3, 6 ch, 384 Kbps | Русский
    Аудио 4 : AC-3, 6 ch, 640 Kbps | Французский

    Sort Name: Rémi sans famille
    XID: Apple: vendor_id: 2018-1108571
    contentID: 1442848965
    Copyright: © 2018 JERICO – TF1 DROITS AUDIOVISUELS - TF1 FILMS PRODUCTION - NEXUS FACTORY – UMEDIA - All rights reserved.
    Screenwriters: Антуан Блоссье, Гектор Мало
    Producers: Эрик Йехельманн, Филипп Руссле, Фабрис Джанферми
    Director: Антуан Блоссье
    Cast: Малом Пакуин, Даниель Отой, Виржини Ледуайен, Жонатан Заккаи, Жак Перрен, Людивин Санье, Альбан Массон, Зои Бойл, Николас Роу, Никола Даффетт
    Studio: TF1 STUDIO
    Rating: 60
    Long Description: Удивительное путешествие по Франции маленького Реми в компании уличного музыканта, обезьянки и цирковой собаки. Вместе им предстоит пережить неожиданные встречи, приключения и испытания, чтобы раскрыть тайну происхождения мальчика.
    Description: Удивительное путешествие по Франции маленького Реми в компании уличного музыканта, обезьянки и цирковой собаки. Вместе им предстоит пережить неожиданные встречи, приключения и испытания, чтобы раскрыть тайну происхождения мальчика.
    Release Date: 2018-09-30T08: 00: 00Z
    Genre: Drama
    Artist: Antoine Blossier
    Name: Rémi sans famille

    General
    Complete name : /Users/imac/HandBrake/Remi.sans.famille.720p.HD.m4v
    Format : MPEG-4
    Codec ID : M4V (M4V /M4A /mp42/isom)
    File size : 3.66 GiB
    Duration : 1h 48mn
    Overall bit rate mode : Variable
    Overall bit rate : 4 841 Kbps
    Movie name : Rémi sans famille
    Performer : Antoine Blossier
    Director : Антуан Блоссье
    Actor : Малом Пакуин/Даниель Отой/Виржини Ледуайен/Жонатан Заккаи/Жак Перрен/Людивин Санье/Альбан Массон/Зои Бойл/Николас Роу/Никола Даффетт
    Screenplay by : Антуан Блоссье/Гектор Мало
    Producer : Эрик Йехельманн/Филипп Руссле/Фабрис Джанферми
    Production studio : TF1 STUDIO
    Genre : Drama
    ContentType : Short Film
    Description : Удивительное путешествие по Франции маленького Реми в компании уличного музыканта, обезьянки и цирковой собаки. Вместе им предстоит пережить неожиданные встречи, приключения и испытания, чтобы раскрыть тайну происхождения мальчика.
    Recorded date : UTC 2018-09-30 08: 00: 00
    Encoded date : UTC 2019-09-27 14: 47: 27
    Tagged date : UTC 2019-09-27 14: 49: 20
    Copyright : © 2018 JERICO – TF1 DROITS AUDIOVISUELS - TF1 FILMS PRODUCTION - NEXUS FACTORY – UMEDIA - All rights reserved.
    Cover : Yes
    Rating : None
    Title/Sort : Rémi sans famille
    LongDescription : Удивительное путешествие по Франции маленького Реми в компании уличного музыканта, обезьянки и цирковой собаки. Вместе им предстоит пережить неожиданные встречи, приключения и испытания, чтобы раскрыть тайну происхождения мальчика.
    HDVideo : Yes
    AppleStoreCatalogID : 1442848965
    Vendor : Apple: vendor_id: 2018-1108571
    ContentRating : fr-movie|Tout public|000|
    Video #1
    ID : 1
    Format : AVC
    Format/Info : Advanced Video Codec
    Format profile : High@L3.1
    Format settings : 3 Ref Frames
    Format settings, CABAC : No
    Format settings, ReFrames : 3 frames
    Codec ID : avc1
    Codec ID/Info : Advanced Video Coding
    Duration : 1h 48mn
    Bit rate : 3 500 Kbps
    Width : 1 280 pixels
    Height : 544 pixels
    Display aspect ratio : 2.35: 1
    Frame rate mode : Variable
    Frame rate : 23.976 fps
    Minimum frame rate : 23.828 fps
    Maximum frame rate : 23.981 fps
    Color space : YUV
    Chroma subsampling : 4: 2: 0
    Bit depth : 8 bits
    Scan type : Progressive
    Bits/(Pixel*Frame) : 0.210
    Stream size : 2.64 GiB (72%)
    Title : Main Program
    Writing library : x264 core 157 r2935 545de2f
    Encoding settings : cabac=0/ref=3/deblock=1: -3: -3/analyse=0x3: 0x113/me=umh/subme=9/psy=1/psy_rd=1.00: 0.15/mixed_ref=1/me_range=32/chroma_me=1/trellis=0/8x8dct=1/cqm=0/deadzone=21, 11/fast_pskip=0/chroma_qp_offset=-2/threads=17/lookahead_threads=1/sliced_threads=0/nr=0/decimate=0/interlaced=0/bluray_compat=0/constrained_intra=0/bframes=3/b_pyramid=0/b_adapt=2/b_bias=0/direct=1/weightb=0/open_gop=0/weightp=0/keyint=240/keyint_min=24/scenecut=40/intra_refresh=0/rc_lookahead=40/rc=2pass/mbtree=1/bitrate=3500/ratetol=1.0/qcomp=0.65/qpmin=0/qpmax=69/qpstep=4/cplxblur=20.0/qblur=0.5/vbv_maxrate=9500/vbv_bufsize=9500/nal_hrd=none/filler=0/ip_ratio=1.40/aq=1: 1.10
    Language : English
    Encoded date : UTC 2019-09-27 14: 47: 27
    Tagged date : UTC 2019-09-27 14: 47: 41
    Color range : Limited
    Color primaries : BT.709
    Transfer characteristics : BT.709
    Matrix coefficients : BT.709
    Menus : 7, 8
    Codec configuration box : avcC
    Video #2
    ID : 8
    Format : JPEG
    Codec ID : jpeg
    Duration : 1h 48mn
    Bit rate mode : Variable
    Bit rate : 695 bps
    Width : 640 pixels
    Height : 272 pixels
    Display aspect ratio : 2.35: 1
    Frame rate mode : Variable
    Frame rate : 0.002 fps
    Minimum frame rate : 0.001 fps
    Maximum frame rate : 0.003 fps
    Color space : YUV
    Chroma subsampling : 4: 2: 0
    Bit depth : 8 bits
    Compression mode : Lossy
    Bits/(Pixel*Frame) : 1.996
    Stream size : 467 KiB (0%)
    Title : Chapter Images
    Language : English
    Default : No
    Encoded date : UTC 2019-09-27 14: 48: 38
    Tagged date : UTC 2019-09-27 14: 48: 38
    Menu For : 1
    ColorSpace_ICC : RGB
    Audio #1
    ID : 2
    Format : AAC LC
    Format/Info : Advanced Audio Codec Low Complexity
    Codec ID : mp4a-40-2
    Duration : 1h 48mn
    Source duration : 1h 48mn
    Bit rate mode : Variable
    Bit rate : 158 Kbps
    Maximum bit rate : 233 Kbps
    Channel(s) : 2 channels
    Channel layout : L R
    Sampling rate : 48.0 KHz
    Frame rate : 46.875 fps (1024 SPF)
    Compression mode : Lossy
    Stream size : 122 MiB (3%)
    Source stream size : 122 MiB (3%)
    Title : Russian Stereo
    Language : Russian
    Default : Yes
    Alternate group : 1
    Encoded date : UTC 2019-09-27 14: 47: 27
    Tagged date : UTC 2019-09-27 14: 48: 35
    Fallback From : 4
    Audio #2
    ID : 3
    Format : AAC LC
    Format/Info : Advanced Audio Codec Low Complexity
    Codec ID : mp4a-40-2
    Duration : 1h 48mn
    Source duration : 1h 48mn
    Bit rate mode : Variable
    Bit rate : 158 Kbps
    Maximum bit rate : 243 Kbps
    Channel(s) : 2 channels
    Channel layout : L R
    Sampling rate : 48.0 KHz
    Frame rate : 46.875 fps (1024 SPF)
    Compression mode : Lossy
    Stream size : 122 MiB (3%)
    Source stream size : 122 MiB (3%)
    Title : French Stereo
    Language : French
    Default : No
    Alternate group : 1
    Encoded date : UTC 2019-09-27 14: 47: 27
    Tagged date : UTC 2019-09-27 14: 48: 35
    Fallback From : 5
    Audio #3
    ID : 4
    Format : AC-3
    Format/Info : Audio Coding 3
    Commercial name : Dolby Digital
    Codec ID : ac-3
    Duration : 1h 48mn
    Bit rate mode : Constant
    Bit rate : 384 Kbps
    Channel(s) : 6 channels
    Channel layout : L R C LFE Ls Rs
    Sampling rate : 48.0 KHz
    Frame rate : 31.250 fps (1536 SPF)
    Bit depth : 16 bits
    Compression mode : Lossy
    Stream size : 297 MiB (8%)
    Title : Russian DD 5.1
    Language : Russian
    Service kind : Complete Main
    Default : Inherited From: 2
    Alternate group : 1
    Encoded date : UTC 2019-09-27 14: 47: 27
    Tagged date : UTC 2019-09-27 14: 48: 35
    Fallback To : 2
    Audio #4
    ID : 5
    Format : AC-3
    Format/Info : Audio Coding 3
    Commercial name : Dolby Digital
    Codec ID : ac-3
    Duration : 1h 48mn
    Bit rate mode : Constant
    Bit rate : 640 Kbps
    Channel(s) : 6 channels
    Channel layout : L R C LFE Ls Rs
    Sampling rate : 48.0 KHz
    Frame rate : 31.250 fps (1536 SPF)
    Bit depth : 16 bits
    Compression mode : Lossy
    Stream size : 495 MiB (13%)
    Title : French DD 5.1
    Language : French
    Service kind : Complete Main
    Default : No
    Alternate group : 1
    Encoded date : UTC 2019-09-27 14: 47: 27
    Tagged date : UTC 2019-09-27 14: 48: 35
    Fallback To : 3
    Text
    ID : 6
    Format : Timed Text
    Muxing mode : sbtl
    Codec ID : tx3g
    Duration : 1h 42mn
    Bit rate mode : Variable
    Bit rate : 48 bps
    Stream size : 35.7 KiB (0%)
    Title : English full
    Language : English
    Default : Yes
    Forced : No
    Alternate group : 2
    Encoded date : UTC 2019-09-27 14: 47: 27
    Tagged date : UTC 2019-09-27 14: 48: 32
    Menu #1
    00: 00: 00.000 : Chapter 1
    00: 11: 34.153 : Chapter 2
    00: 20: 23.558 : Chapter 3
    00: 31: 56.168 : Chapter 4
    00: 39: 20.446 : Chapter 5
    00: 51: 20.041 : Chapter 6
    01: 00: 27.256 : Chapter 7
    01: 11: 19.408 : Chapter 8
    01: 21: 33.441 : Chapter 9
    01: 30: 19.050 : Chapter 10
    01: 43: 10.156 : Chapter 11
    Menu #2
    ID : 7
    Codec ID : text
    Duration : 1h 48mn
    Language : French
    Encoded date : UTC 2019-09-27 14: 48: 35
    Tagged date : UTC 2019-09-27 14: 48: 35
    Menu For : 1
    00: 00: 00.000 : Chapter 1
    00: 11: 34.153 : Chapter 2
    00: 20: 23.558 : Chapter 3
    00: 31: 56.168 : Chapter 4
    00: 39: 20.446 : Chapter 5
    00: 51: 20.041 : Chapter 6
    01: 00: 27.256 : Chapter 7
    01: 11: 19.408 : Chapter 8
    01: 21: 33.441 : Chapter 9
    01: 30: 19.050 : Chapter 10
    01: 43: 10.156 : Chapter 11

    x264 info: frame I: 1456 Avg QP: 15.55 size: 133901
    x264 info: frame P: 53938 Avg QP: 18.16 size: 35121
    x264 info: frame B: 100236 Avg QP: 20.29 size: 7407
    x264 info: consecutive B-frames: 4.1% 18.5% 34.8% 42.6%
    x264 info: mb I I16..4: 6.3% 60.7% 33.0%
    x264 info: mb P I16..4: 1.0% 3.0% 1.5% P16..4: 48.0% 26.9% 12.5% 0.0% 0.0% skip: 7.2%
    x264 info: mb B I16..4: 0.1% 0.4% 0.2% B16..8: 44.5% 9.0% 1.5% direct: 3.5% skip: 40.8% L0: 40.5% L1: 51.9% BI: 7.7%
    x264 info: 8x8 transform intra: 56.7% inter: 44.9%
    x264 info: coded y, uvDC, uvAC intra: 83.7% 85.0% 68.3% inter: 25.9% 23.4% 13.9%
    x264 info: i16 v, h, dc, p: 63% 10% 7% 20%
    x264 info: i8 v, h, dc, ddl, ddr, vr, hd, vl, hu: 10% 7% 5% 11% 15% 15% 13% 12% 11%
    x264 info: i4 v, h, dc, ddl, ddr, vr, hd, vl, hu: 10% 7% 4% 12% 17% 16% 14% 12% 10%
    x264 info: i8c dc, h, v, p: 53% 15% 20% 12%
    x264 info: ref P L0: 72.6% 16.3% 11.1%
    x264 info: ref B L0: 78.5% 21.5%
    x264 info: kb/s: 3490.08
    Скриншоты :


    Все одноименные релизы в Клубе
    Время раздачи: 24/7 (круглосуточно)


    Релиз подготовлен для просмотра наApple TV, iPad, iPhone, iPod Touch.
    Для просмотра данного релиза на компьютере с ОС Windows рекомендуется использоватьVLC media player


    Приключения Реми/Remi sans famille (2018) BDRip [720p] ATV
    Рейтинг →
     (голосов: 1, оценка 4/5, голосовать можно 1 раз )

    Другие торренты по теме:

  • Приключения Реми / Без семьи / Remi sans famille (2018) BDRemux [H.264 / 1080p]
  • Приключения Реми / Без семьи / Remi sans famille (2018) BDRemux [H.264 / 1080p]
  • Приключения Реми / Без семьи / Remi sans famille (2018) BDRip [H.264 / 1080p]
  • Приключения Реми / Без семьи / Remi sans famille (2018) BDRip [H.265 / 1080p] [10-bit]
  • Приключения Реми / Без семьи / Remi sans famille (2018) BDRip [H.265 / 720p] [10-bit]
  • Приключения Реми / Без семьи / Remi sans famille (2018) BDRip [H.265] [10-bit]
  • Приключения Реми / Remi sans famille (2018) BDRip [1080p] ATV


    • Комментарии (0):

      Информация

      Информация

        Посетители, находящиеся в группе Гости, не могут оставлять комментарии в данной новости.

        ↓ Меню




        ↓ Опрос

        Вы добавили сайт в закладки?
        Да
        Нет


        Популярное