.
Авторизация | Регистрация

bitok.xyz

» » Форсаж: Хоббс и Шоу / Fast & Furious Presents: Hobbs & Shaw (2019) WEB-DL [1080p] ATV торрент скачать бесплатно


    Форсаж: Хоббс и Шоу / Fast & Furious Presents: Hobbs & Shaw (2019) WEB-DL [1080p] ATV торрент скачать бесплатно

    Дата: 29-09-2019, 05:00 | .torrent скачали: 0

    Форсаж: Хоббс и Шоу / Fast & Furious Presents: Hobbs & Shaw (2019) WEB-DL [1080p] ATVПроизводство : Великобритания, США/Universal Pictures
    Жанр : Боевик, приключения
    Режиссер : Дэвид Литч
    Продюсер : Хирам Гарсиа, Дуэйн Джонсон, Крис Морган
    Актеры : Дуэйн Джонсон, Джейсон Стэйтем, Идрис Эльба, Ванесса Кирби, Хелен Миррен, Эйса Гонсалес, Эдди Марсан, Элиана Суа, Клифф Кёртис, Лори Пелениз Туисано
    Описание : Люк Хоббс — американский элитный спецагент, он любит удобную спортивную одежду, большие пикапы и здоровое питание. Декард Шоу — британский пижон, бывший сотрудник разведки, предпочитает дорогие костюмы, спортивные авто и длинноногих красоток.

    Возраст: 12+ Зрителям, достигшим 12 лет
    Рейтинг MPAA: PG-13 Детям до 13 просмотр не желателен
    Дата мировой премьеры: 13 июля 2019
    Дата российской премьеры: 1 августа 2019, UPI
    Цифровой релиз: 26 сентября 2019, Universal
    Релиз от: Kosatka
    Продолжительность : 02: 15: 55
    Качество видео : WEB-DL 1080p
    Перевод: Дублированный(iTunes)
    Субтитры: Русские (форс. хардсаб)
    Видео: AVC/H.264, 1916x796, 4 520 Kbps, 23.976 fps
    Аудио 1 : AAC, 2.0 ch, 160 Kbps | Русский
    Аудио 2 : AC-3, 6 ch, 384 Kbps | Русский

    Sort Name: Fast Furious Presents: Hobbs Shaw
    XID: Apple: vendor_id: 2019-1044450
    contentID: 1473845018
    Copyright: © 2019 Universal Studios. All Rights Reserved.
    Screenwriters: Крис Морган, Дрю Пирс, Гэри Скотт Томпсон
    Producers: Хирам Гарсиа, Дуэйн Джонсон, Крис Морган
    Director: Дэвид Литч
    Cast: Дуэйн Джонсон, Джейсон Стэйтем, Идрис Эльба, Ванесса Кирби, Хелен Миррен, Эйса Гонсалес, Эдди Марсан, Элиана Суа, Клифф Кёртис, Лори Пелениз Туисано
    Studio: Universal Pictures
    Rating: 4
    Long Description: Люк Хоббс - американский элитный спецагент, он любит удобную спортивную одежду, большие пикапы и здоровое питание. Декард Шоу - британский пижон, бывший сотрудник разведки, предпочитает дорогие костюмы, спортивные авто и длинноногих красоток.
    Эти двое ненавидят друг друга. Но если кто-то угрожает их семьям, они готовы пойти на все. Даже на работу в команде.
    Description: Люк Хоббс - американский элитный спецагент, он любит удобную спортивную одежду, большие пикапы и здоровое питание. Декард Шоу - британский пижон, бывший сотрудник разведки, предпочитает дорогие костюмы, спортивные авто и длинноногих красоток.
    Эти двое ненавидят друг друга. Но если кто-то угрожает их семьям, они готовы пойти на все. Даже на работу в команде.
    Release Date: 2019-07-13T08: 00: 00Z
    Genre: Action Adventure
    Artist: David Leitch
    Name: Fast Furious Presents: Hobbs Shaw

    General
    Complete name : /Users/imac/HandBrake/Fast.and.Furious.Presents.Hobbs.and.Shaw.WEB-DL.1080p.m4v
    Format : MPEG-4
    Codec ID : M4V (M4V /M4A /mp42/isom)
    File size : 4.81 GiB
    Duration : 2h 15mn
    Overall bit rate mode : Variable
    Overall bit rate : 5 070 Kbps
    Movie name : Fast Furious Presents: Hobbs Shaw
    Performer : David Leitch
    Director : Дэвид Литч
    Actor : Дуэйн Джонсон/Джейсон Стэйтем/Идрис Эльба/Ванесса Кирби/Хелен Миррен/Эйса Гонсалес/Эдди Марсан/Элиана Суа/Клифф Кёртис/Лори Пелениз Туисано
    Screenplay by : Крис Морган/Дрю Пирс/Гэри Скотт Томпсон
    Producer : Хирам Гарсиа/Дуэйн Джонсон/Крис Морган
    Production studio : Universal Pictures
    Genre : Action Adventure
    ContentType : Short Film
    Description : Люк Хоббс - американский элитный спецагент, он любит удобную спортивную одежду, большие пикапы и здоровое питание. Декард Шоу - британский пижон, бывший сотрудник разведки, предпочитает дорогие костюмы, спортивные авто и длинноногих красоток./Эти двое ненавидят друг друга. Но если кто-то угрожает их семьям, они готовы пойти на все. Даже на работу в команде.
    Recorded date : UTC 2019-07-13 08: 00: 00
    Encoded date : UTC 2019-09-27 23: 25: 19
    Tagged date : UTC 2019-09-27 23: 26: 19
    Copyright : © 2019 Universal Studios. All Rights Reserved.
    Cover : Yes
    Rating : None
    Title/Sort : Fast Furious Presents: Hobbs Shaw
    LongDescription : Люк Хоббс - американский элитный спецагент, он любит удобную спортивную одежду, большие пикапы и здоровое питание. Декард Шоу - британский пижон, бывший сотрудник разведки, предпочитает дорогие костюмы, спортивные авто и длинноногих красоток./Эти двое ненавидят друг друга. Но если кто-то угрожает их семьям, они готовы пойти на все. Даже на работу в команде.
    AppleStoreCatalogID : 1473845018
    Vendor : Apple: vendor_id: 2019-1044450
    ContentRating : mpaa|PG-13|300|
    Video #1
    ID : 1
    Format : AVC
    Format/Info : Advanced Video Codec
    Format profile : High@L4
    Format settings : CABAC/5 Ref Frames
    Format settings, CABAC : Yes
    Format settings, ReFrames : 5 frames
    Codec ID : avc1
    Codec ID/Info : Advanced Video Coding
    Duration : 2h 15mn
    Bit rate : 4 520 Kbps
    Width : 1 916 pixels
    Height : 796 pixels
    Display aspect ratio : 2.40: 1
    Frame rate : 23.976 fps
    Color space : YUV
    Chroma subsampling : 4: 2: 0
    Bit depth : 8 bits
    Scan type : Progressive
    Bits/(Pixel*Frame) : 0.124
    Stream size : 4.29 GiB (89%)
    Title : Main Program
    Language : English
    Encoded date : UTC 2019-09-27 23: 25: 19
    Tagged date : UTC 2019-09-27 23: 25: 28
    Color range : Limited
    Color primaries : BT.709
    Transfer characteristics : BT.709
    Matrix coefficients : BT.709
    Menus : 4, 5
    Codec configuration box : avcC
    Video #2
    ID : 5
    Format : JPEG
    Codec ID : jpeg
    Duration : 2h 15mn
    Bit rate mode : Variable
    Bit rate : 610 bps
    Width : 640 pixels
    Height : 265 pixels
    Display aspect ratio : 2.40: 1
    Frame rate mode : Variable
    Frame rate : 0.002 fps
    Minimum frame rate : 0.001 fps
    Maximum frame rate : 0.004 fps
    Color space : YUV
    Chroma subsampling : 4: 2: 0
    Bit depth : 8 bits
    Compression mode : Lossy
    Bits/(Pixel*Frame) : 1.798
    Stream size : 745 KiB (0%)
    Title : Chapter Images
    Language : English
    Default : No
    Encoded date : UTC 2019-09-27 23: 25: 38
    Tagged date : UTC 2019-09-27 23: 25: 38
    Menu For : 1
    ColorSpace_ICC : RGB
    Audio #1
    ID : 2
    Format : AAC LC
    Format/Info : Advanced Audio Codec Low Complexity
    Codec ID : mp4a-40-2
    Duration : 2h 15mn
    Source duration : 2h 15mn
    Bit rate mode : Variable
    Bit rate : 157 Kbps
    Maximum bit rate : 243 Kbps
    Channel(s) : 2 channels
    Channel layout : L R
    Sampling rate : 48.0 KHz
    Frame rate : 46.875 fps (1024 SPF)
    Compression mode : Lossy
    Stream size : 153 MiB (3%)
    Source stream size : 153 MiB (3%)
    Title : Russian Stereo
    Language : Russian
    Default : Yes
    Alternate group : 1
    Encoded date : UTC 2019-09-27 23: 25: 19
    Tagged date : UTC 2019-09-27 23: 25: 30
    Fallback From : 3
    Audio #2
    ID : 3
    Format : AC-3
    Format/Info : Audio Coding 3
    Commercial name : Dolby Digital
    Codec ID : ac-3
    Duration : 2h 15mn
    Bit rate mode : Constant
    Bit rate : 384 Kbps
    Channel(s) : 6 channels
    Channel layout : L R C LFE Ls Rs
    Sampling rate : 48.0 KHz
    Frame rate : 31.250 fps (1536 SPF)
    Bit depth : 16 bits
    Compression mode : Lossy
    Stream size : 373 MiB (8%)
    Title : Russian DD 5.1
    Language : Russian
    Service kind : Complete Main
    Default : Inherited From: 2
    Alternate group : 1
    Encoded date : UTC 2019-09-27 23: 25: 19
    Tagged date : UTC 2019-09-27 23: 25: 28
    Fallback To : 2
    Menu #1
    00: 00: 00.000 : 1
    00: 04: 59.049 : 2
    00: 13: 44.491 : 3
    00: 19: 22.453 : 4
    00: 26: 46.980 : 5
    00: 35: 42.514 : 6
    00: 40: 14.244 : 7
    00: 46: 23.028 : 8
    00: 51: 35.214 : 9
    00: 57: 52.799 : 10
    01: 01: 54.248 : 11
    01: 08: 46.158 : 12
    01: 14: 23.829 : 13
    01: 19: 49.070 : 14
    01: 25: 00.255 : 15
    01: 32: 59.191 : 16
    01: 38: 49.916 : 17
    01: 46: 33.962 : 18
    01: 53: 30.585 : 19
    02: 01: 15.800 : 20
    Menu #2
    ID : 4
    Codec ID : text
    Duration : 2h 15mn
    Language : English
    Encoded date : UTC 2019-09-27 23: 25: 30
    Tagged date : UTC 2019-09-27 23: 25: 30
    Menu For : 1
    00: 00: 00.000 : 1
    00: 04: 59.049 : 2
    00: 13: 44.491 : 3
    00: 19: 22.453 : 4
    00: 26: 46.980 : 5
    00: 35: 42.514 : 6
    00: 40: 14.244 : 7
    00: 46: 23.028 : 8
    00: 51: 35.214 : 9
    00: 57: 52.799 : 10
    01: 01: 54.248 : 11
    01: 08: 46.158 : 12
    01: 14: 23.829 : 13
    01: 19: 49.070 : 14
    01: 25: 00.255 : 15
    01: 32: 59.191 : 16
    01: 38: 49.916 : 17
    01: 46: 33.962 : 18
    01: 53: 30.585 : 19
    02: 01: 15.800 : 20
    Скриншоты :

    Все одноименные релизы в Клубе
    Время раздачи: 24/7 (круглосуточно)


    Релиз подготовлен для просмотра наApple TV, iPad, iPhone, iPod Touch.
    Для просмотра данного релиза на компьютере с ОС Windows рекомендуется использоватьVLC media player


    Форсаж: Хоббс и Шоу/Fast & Furious Presents: Hobbs & Shaw (2019) WEB-DL [1080p] ATV
    Рейтинг →
     (голосов: 1, оценка 3/5, голосовать можно 1 раз )

    Другие торренты по теме:

  • Форсаж: Хоббс и Шоу / Fast & Furious Presents: Hobbs & Shaw (2019) WEB-DL [H.265 / 2160p] [4K, SDR, 10-bit]
  • Форсаж: Хоббс и Шоу / Fast & Furious Presents: Hobbs & Shaw (2019) CAMRip [H.264 / 720p-LQ] [AD]
  • Форсаж: Хоббс и Шоу / Fast & Furious Presents: Hobbs & Shaw (2019) CAMRip [AD]
  • Форсаж: Хоббс и Шоу / Fast & Furious Presents: Hobbs & Shaw (2019) WEBRip [H.264 / 1080p] [EN / KOR Sub] [PR]
  • Форсаж: Хоббс и Шоу / Fast & Furious Presents: Hobbs & Shaw (2019) WEBRip [H.264] [UKR, EN / KOR Sub] [Line]
  • Форсаж: Хоббс и Шоу / Fast & Furious Presents: Hobbs & Shaw (2019) WEBRip [UKR / KOR Sub] [Line]
  • Форсаж: Хоббс и Шоу / Fast & Furious Presents: Hobbs & Shaw (2019) WEBRip [H.264 / 1080p-LQ] [UKR, EN / KOR Sub] [Line]
  • Форсаж: Хоббс и Шоу / Fast & Furious Presents: Hobbs & Shaw (2019) WEBRip [H.264 / 1080p-LQ] [Line] [AD]


    • Комментарии (0):

      Информация

      Информация

        Посетители, находящиеся в группе Гости, не могут оставлять комментарии в данной новости.

        ↓ Меню




        ↓ Опрос

        Вы добавили сайт в закладки?
        Да
        Нет


        Популярное