.
Авторизация | Регистрация

bitok.xyz

» » В тени Луны / In the Shadow of the Moon (2019) WEBRip [720p] ATV торрент скачать бесплатно


    В тени Луны / In the Shadow of the Moon (2019) WEBRip [720p] ATV торрент скачать бесплатно

    Дата: 1-10-2019, 05:00 | .torrent скачали: 0

    В тени Луны / In the Shadow of the Moon (2019) WEBRip [720p] ATVПроизводство : США/42, Automatik, Belladonna Productions
    Жанр : Фантастика, детектив, триллер, криминал
    Режиссер : Джим Микл
    Продюсер : Риан Кехилл, Брайан Кэвэна-Джонс, Джим Микл
    Актеры : Бойд Холбрук, Клеопатра Коулмэн, Боким Вудбайн, Майкл С. Холл, Руди Дхармалингхам, Аль Майни, Куинси Кирквуд, Сара Дагдэйл, Рэйчел Келлер, Райан Аллен
    Описание : Филадельфия, 1988 год. У патрульного полицейского Томаса Локхарта день получился насыщенным. В разных концах города загадочной смертью умирают три человека, и всех троих на шее найдены странные следы от уколов. Чудом успев пообщаться с четвёртой жертвой, пока та ещё была жива, полицейские получают описание подозреваемой — чернокожей девушки в синем худи. Преследуя преступницу, Локхарт оказывается в метро, вступает с ней в потасовку, и девушка погибает под колёсами поезда. Этим же вечером жена полицейского, произведя на свет девочку, умирает на операционном столе. 1997 год. Поздравив дочь с днём рождения и пообещав сводить её в зоопарк, детектив Томас Локхарт получает сообщение об убийствах, идентичных преступлениям девятилетней давности. Подозреваемая — чернокожая девушка в синем худи.

    Дата мировой премьеры: 21 сентября 2019
    Релиз от: Kosatka
    Продолжительность : 01: 55: 32
    Качество видео : WEBRip 720p
    Перевод: Дублированный(Пифагор)
    Субтитры: Русские (Forced, Full), Английские (Full, SDH)
    Видео: AVC/H.264, 1280x536, 3 500 Kbps, 23.976 fps
    Аудио 1 : AAC, 2.0 ch, 160 Kbps | Русский
    Аудио 2 : AAC, 2.0 ch, 160 Kbps | Английский
    Аудио 3 : AC-3, 6 ch, 640 Kbps | Русский
    Аудио 4 : AC-3, 6 ch, 640 Kbps | Английский

    Sort Name: In the Shadow of the Moon
    XID: Apple: vendor_id: 2019-1127701
    contentID: 1127701
    Screenwriters: Грегори Вейдман, Джеффри Ток
    Producers: Риан Кехилл, Брайан Кэвэна-Джонс, Джим Микл
    Director: Джим Микл
    Cast: Бойд Холбрук, Майкл С. Холл, Боким Вудбайн, Клеопатра Коулмэн, Сара Дагдэйл, Руди Дхармалингхам, Габриэль Грэхэм, Джулия Ноуп, Райан Аллен, Билли Отис
    Studio: 42, Automatik, Belladonna Productions
    Rating: 0
    Long Description: Филадельфия, 1988 год. У патрульного полицейского Томаса Локхарта день получился насыщенным. В разных концах города загадочной смертью умирают три человека, и всех троих на шее найдены странные следы от уколов. Чудом успев пообщаться с четвёртой жертвой, пока та ещё была жива, полицейские получают описание подозреваемой — чернокожей девушки в синем худи. Преследуя преступницу, Локхарт оказывается в метро, вступает с ней в потасовку, и девушка погибает под колёсами поезда. Этим же вечером жена полицейского, произведя на свет девочку, умирает на операционном столе.
    1997 год. Поздравив дочь с днём рождения и пообещав сводить её в зоопарк, детектив Томас Локхарт получает сообщение об убийствах, идентичных преступлениям девятилетней давности. Подозреваемая — чернокожая девушка в синем худи.
    Description: Филадельфия, 1988 год. У патрульного полицейского Томаса Локхарта день получился насыщенным. В разных концах города загадочной смертью умирают три человека, и всех троих на шее найдены странные следы от уколов. Чудом успев пообщаться с четвёртой жертвой, пока та ещё была жива, полицейские получают описание подозреваемой — чернокожей девушки в синем худи. Преследуя преступницу, Локхарт оказывается в метро, вступает с ней в потасовку, и девушка погибает под колёсами поезда. Этим же вечером жена полицейского, произведя на свет девочку, умирает на операционном столе.
    Release Date: 2019-09-21T08: 00: 00Z
    Genre: Action Adventure
    Artist: Jim Mickle
    Name: In the Shadow of the Moon

    General
    Complete name : /Users/imac/HandBrake/In.the.Shadow.of.the.Moon.WEBRip.720p.m4v
    Format : MPEG-4
    Codec ID : M4V (M4V /M4A /mp42/isom)
    File size : 4.10 GiB
    Duration : 1h 55mn
    Overall bit rate mode : Variable
    Overall bit rate : 5 084 Kbps
    Movie name : In the Shadow of the Moon
    Performer : Jim Mickle
    Director : Джим Микл
    Actor : Бойд Холбрук/Майкл С. Холл/Боким Вудбайн/Клеопатра Коулмэн/Сара Дагдэйл/Руди Дхармалингхам/Габриэль Грэхэм/Джулия Ноуп/Райан Аллен/Билли Отис
    Screenplay by : Грегори Вейдман/Джеффри Ток
    Producer : Риан Кехилл/Брайан Кэвэна-Джонс/Джим Микл
    Production studio : 42, Automatik, Belladonna Productions
    Genre : Action Adventure
    ContentType : Short Film
    Description : Филадельфия, 1988 год. У патрульного полицейского Томаса Локхарта день получился насыщенным. В разных концах города загадочной смертью умирают три человека, и всех троих на шее найдены странные следы от уколов. Чудом успев пообщаться с четвёртой жертвой, пока та ещё была жива, полицейские получают описание подозреваемой — чернокожей девушки в синем худи. Преследуя преступницу, Локхарт оказывается в метро, вступает с ней в потасовку, и девушка погибает под колёсами поезда. Этим же вечером жена полицейского, произведя на свет девочку, умирает на операционном столе.
    Recorded date : UTC 2019-09-21 08: 00: 00
    Encoded date : UTC 2019-09-29 23: 33: 33
    Tagged date : UTC 2019-09-29 23: 34: 17
    Cover : Yes
    Rating : None
    Title/Sort : In the Shadow of the Moon
    LongDescription : Филадельфия, 1988 год. У патрульного полицейского Томаса Локхарта день получился насыщенным. В разных концах города загадочной смертью умирают три человека, и всех троих на шее найдены странные следы от уколов. Чудом успев пообщаться с четвёртой жертвой, пока та ещё была жива, полицейские получают описание подозреваемой — чернокожей девушки в синем худи. Преследуя преступницу, Локхарт оказывается в метро, вступает с ней в потасовку, и девушка погибает под колёсами поезда. Этим же вечером жена полицейского, произведя на свет девочку, умирает на операционном столе./1997 год. Поздравив дочь с днём рождения и пообещав сводить её в зоопарк, детектив Томас Локхарт получает сообщение об убийствах, идентичных преступлениям девятилетней давности. Подозреваемая — чернокожая девушка в синем худи.
    HDVideo : Yes
    AppleStoreCatalogID : 1127701
    Vendor : Apple: vendor_id: 2019-1127701
    ContentRating : mpaa|Unrated|???|
    Video
    ID : 1
    Format : AVC
    Format/Info : Advanced Video Codec
    Format profile : High@L3.1
    Format settings : 3 Ref Frames
    Format settings, CABAC : No
    Format settings, ReFrames : 3 frames
    Codec ID : avc1
    Codec ID/Info : Advanced Video Coding
    Duration : 1h 55mn
    Bit rate : 3 500 Kbps
    Width : 1 280 pixels
    Height : 536 pixels
    Display aspect ratio : 2.40: 1
    Frame rate mode : Variable
    Frame rate : 23.976 fps
    Minimum frame rate : 23.828 fps
    Maximum frame rate : 23.981 fps
    Color space : YUV
    Chroma subsampling : 4: 2: 0
    Bit depth : 8 bits
    Scan type : Progressive
    Bits/(Pixel*Frame) : 0.213
    Stream size : 2.81 GiB (69%)
    Title : Main Program
    Writing library : x264 core 157 r2935 545de2f
    Encoding settings : cabac=0/ref=3/deblock=1: -3: -3/analyse=0x3: 0x113/me=umh/subme=9/psy=1/psy_rd=1.00: 0.15/mixed_ref=1/me_range=32/chroma_me=1/trellis=0/8x8dct=1/cqm=0/deadzone=21, 11/fast_pskip=0/chroma_qp_offset=-2/threads=17/lookahead_threads=1/sliced_threads=0/nr=0/decimate=0/interlaced=0/bluray_compat=0/constrained_intra=0/bframes=3/b_pyramid=0/b_adapt=2/b_bias=0/direct=1/weightb=0/open_gop=0/weightp=0/keyint=240/keyint_min=24/scenecut=40/intra_refresh=0/rc_lookahead=40/rc=2pass/mbtree=1/bitrate=3500/ratetol=1.0/qcomp=0.65/qpmin=0/qpmax=69/qpstep=4/cplxblur=20.0/qblur=0.5/vbv_maxrate=9500/vbv_bufsize=9500/nal_hrd=none/filler=0/ip_ratio=1.40/aq=1: 1.10
    Language : English
    Encoded date : UTC 2019-09-29 23: 33: 33
    Tagged date : UTC 2019-09-29 23: 33: 42
    Color range : Limited
    Color primaries : BT.709
    Transfer characteristics : BT.709
    Matrix coefficients : BT.709
    Codec configuration box : avcC
    Audio #1
    ID : 2
    Format : AAC LC
    Format/Info : Advanced Audio Codec Low Complexity
    Codec ID : mp4a-40-2
    Duration : 1h 55mn
    Source duration : 1h 55mn
    Bit rate mode : Variable
    Bit rate : 155 Kbps
    Maximum bit rate : 242 Kbps
    Channel(s) : 2 channels
    Channel layout : L R
    Sampling rate : 48.0 KHz
    Frame rate : 46.875 fps (1024 SPF)
    Compression mode : Lossy
    Stream size : 129 MiB (3%)
    Source stream size : 129 MiB (3%)
    Title : Russian Stereo
    Language : Russian
    Default : Yes
    Alternate group : 1
    Encoded date : UTC 2019-09-29 23: 33: 33
    Tagged date : UTC 2019-09-29 23: 33: 45
    Fallback From : 4
    Subtitles : 6, 7
    Audio #2
    ID : 3
    Format : AAC LC
    Format/Info : Advanced Audio Codec Low Complexity
    Codec ID : mp4a-40-2
    Duration : 1h 55mn
    Source duration : 1h 55mn
    Bit rate mode : Variable
    Bit rate : 155 Kbps
    Maximum bit rate : 254 Kbps
    Channel(s) : 2 channels
    Channel layout : L R
    Sampling rate : 48.0 KHz
    Frame rate : 46.875 fps (1024 SPF)
    Compression mode : Lossy
    Stream size : 128 MiB (3%)
    Source stream size : 128 MiB (3%)
    Title : English Stereo
    Language : English
    Default : No
    Alternate group : 1
    Encoded date : UTC 2019-09-29 23: 33: 33
    Tagged date : UTC 2019-09-29 23: 33: 45
    Fallback From : 5
    Audio #3
    ID : 4
    Format : AC-3
    Format/Info : Audio Coding 3
    Commercial name : Dolby Digital
    Codec ID : ac-3
    Duration : 1h 55mn
    Bit rate mode : Constant
    Bit rate : 640 Kbps
    Channel(s) : 6 channels
    Channel layout : L R C LFE Ls Rs
    Sampling rate : 48.0 KHz
    Frame rate : 31.250 fps (1536 SPF)
    Bit depth : 16 bits
    Compression mode : Lossy
    Stream size : 529 MiB (13%)
    Title : Russian DD 5.1
    Language : Russian
    Service kind : Complete Main
    Default : Inherited From: 2
    Alternate group : 1
    Encoded date : UTC 2019-09-29 23: 33: 33
    Tagged date : UTC 2019-09-29 23: 33: 45
    Fallback To : 2
    Subtitles : 6, 7
    Audio #4
    ID : 5
    Format : AC-3
    Format/Info : Audio Coding 3
    Commercial name : Dolby Digital
    Codec ID : ac-3
    Duration : 1h 55mn
    Bit rate mode : Constant
    Bit rate : 640 Kbps
    Channel(s) : 6 channels
    Channel layout : L R C LFE Ls Rs
    Sampling rate : 48.0 KHz
    Frame rate : 31.250 fps (1536 SPF)
    Bit depth : 16 bits
    Compression mode : Lossy
    Stream size : 529 MiB (13%)
    Title : English DD 5.1
    Language : English
    Service kind : Complete Main
    Default : No
    Alternate group : 1
    Encoded date : UTC 2019-09-29 23: 33: 33
    Tagged date : UTC 2019-09-29 23: 33: 45
    Fallback To : 3
    Text #1
    ID : 6
    Format : Timed Text
    Muxing mode : sbtl
    Codec ID : tx3g
    Duration : 1h 54mn
    Bit rate mode : Variable
    Bit rate : 3 bps
    Stream size : 2.50 KiB (0%)
    Title : Russian forced
    Language : Russian
    Default : Yes
    Forced : Yes
    Alternate group : 2
    Encoded date : UTC 2019-09-29 23: 33: 33
    Tagged date : UTC 2019-09-29 23: 33: 44
    Subtitles For : 2, 4
    Full Alternative : 7
    Text #2
    ID : 7
    Format : Timed Text
    Muxing mode : sbtl
    Codec ID : tx3g
    Duration : 1h 54mn
    Bit rate mode : Variable
    Bit rate : 76 bps
    Stream size : 63.9 KiB (0%)
    Title : Russian full
    Language : Russian
    Default : No
    Forced : No
    Alternate group : 2
    Encoded date : UTC 2019-09-29 23: 33: 33
    Tagged date : UTC 2019-09-29 23: 33: 44
    Subtitles For : 2, 4
    Forced Alternative : 6
    Text #3
    ID : 8
    Format : Timed Text
    Muxing mode : sbtl
    Codec ID : tx3g
    Duration : 1h 49mn
    Bit rate mode : Variable
    Bit rate : 62 bps
    Stream size : 49.4 KiB (0%)
    Title : English full
    Language : English
    Default : No
    Forced : No
    Alternate group : 2
    Encoded date : UTC 2019-09-29 23: 33: 33
    Tagged date : UTC 2019-09-29 23: 33: 44
    Text #4
    ID : 9
    Format : Timed Text
    Muxing mode : sbtl
    Codec ID : tx3g
    Duration : 1h 49mn
    Bit rate mode : Variable
    Bit rate : 73 bps
    Stream size : 58.5 KiB (0%)
    Title : English SDH
    Language : English
    Default : No
    Forced : No
    Alternate group : 2
    Encoded date : UTC 2019-09-29 23: 33: 33
    Tagged date : UTC 2019-09-29 23: 33: 44
    Скриншоты :


    Все одноименные релизы в Клубе
    Время раздачи: 24/7 (круглосуточно)


    Релиз подготовлен для просмотра наApple TV, iPad, iPhone, iPod Touch.
    Для просмотра данного релиза на компьютере с ОС Windows рекомендуется использоватьVLC media player


    В тени Луны/In the Shadow of the Moon (2019) WEBRip [720p] ATV
    Рейтинг →
     (голосов: 1, оценка 4/5, голосовать можно 1 раз )

    Другие торренты по теме:

  • В тени Луны / In the Shadow of the Moon (2019) WEBRip
  • В тени Луны / In the Shadow of the Moon (2019) WEBRip [H.264 / 1080p-LQ] [PR]
  • В тени Луны / In the Shadow of the Moon (2019) WEBRip [H.264]
  • В тени Луны / In the Shadow of the Moon (2019) WEBRip [1080p] ATV [PR]


    • Комментарии (0):

      Информация

      Информация

        Посетители, находящиеся в группе Гости, не могут оставлять комментарии в данной новости.

        ↓ Меню




        ↓ Опрос

        Вы добавили сайт в закладки?
        Да
        Нет


        Популярное