.
Авторизация | Регистрация
bitok.xyz
Торрент скачать бесплатно Программы торрент скачать Бесстрашные / Deliler (2018) WEB-DL [1080p] ATV торрент скачать бесплатно


    Бесстрашные / Deliler (2018) WEB-DL [1080p] ATV торрент скачать бесплатно

    Дата: 14-02-2020, 05:00 | .torrent скачали: 0

    Бесстрашные / Deliler (2018) WEB-DL [1080p] ATVПроизводство : Турция/Angel Film Yapim
    Жанр : И стория, военный
    Режиссер : Осман Кая
    Продюсер : Tenzile Rustemkhanli, Исмаил Филиз, Джихан Кая
    Актеры : Джем Учан, Эркан Петеккая, Нур Феттахоглу, Йеткин Дикинджилер, Гюльшах Шахин, Исмаил Филиз, Batin Deniz Ucan, Namik Rüstem Khanli, Берат Эфэ Парлар, Камиль Гюлер
    Описание : Середина XV века. Расцвет Османской империи. Преданный империи Влад Цепеш одобрен султаном Фатихом Мехмедом II на правление в вассальской Валахии. Но вскоре молодой господарь начал жестоко расправляться с турками и вытеснять их со своих земель, а отправленного разгневанным султаном гонца возвращает с колом в голове. Фатих создал специальный отряд, прозванный отрядом бесстрашных, во главе которого было семеро лучших воинов империи. Османские воины-дели в звериных шкурах с крыльями на каркасе за спиной всегда отличались суровым нравом. Они выполнят любой приказ султана, а сейчас их миссия – уничтожить правителя Валахии. Да начнется бой!

    Дата мировой премьеры: 23 ноября 2018
    Релиз от: Kosatka
    Продолжительность : 02: 00: 33
    Качество видео : WEB-DL 1080p
    Перевод: Дублированный(iTunes)
    Субтитры: Нет
    Видео: AVC/H.264, 1920x804, 4492 Kbps, 24.000 fps
    Аудио 1 : AAC, 2.0 ch, 160 Kbps | Русский
    Аудио 2 : AC-3, 6 ch, 384 Kbps | Русский

    Sort Name: Бесстрашные
    XID: Apple: vendor_id: 2018-1179597
    contentID: 1495364101
    Copyright: © 2020 Мегофильм
    Screenwriters: Esra Vesu Ozcelik, Ibrahim Ethem Arslan, Мустафа Бурак Догу
    Producers: Tenzile Rustemkhanli, Исмаил Филиз, Джихан Кая
    Director: Осман Кая
    Cast: Джем Учан, Эркан Петеккая, Нур Феттахоглу, Йеткин Дикинджилер, Гюльшах Шахин, Исмаил Филиз, Batin Deniz Ucan, Namik Rüstem Khanli, Берат Эфэ Парлар, Камиль Гюлер
    Studio: Angel Film Yapim
    Rating: 135
    Long Description: Середина XV века. Расцвет Османской империи. Преданный империи Влад Цепеш одобрен султаном Фатихом Мехмедом II на правление в вассальской Валахии. Но вскоре молодой господарь начал жестоко расправляться с турками и вытеснять их со своих земель, а отправленного разгневанным султаном гонца возвращает с колом в голове. Фатих создал специальный отряд, прозванный отрядом бесстрашных, во главе которого было семеро лучших воинов империи. Османские воины-дели в звериных шкурах с крыльями на каркасе за спиной всегда отличались суровым нравом. Они выполнят любой приказ султана, а сейчас их миссия – уничтожить правителя Валахии. Да начнется бой!
    Description: Середина XV века. Расцвет Османской империи. Преданный империи Влад Цепеш одобрен султаном Фатихом Мехмедом II на правление в вассальской Валахии. Но вскоре молодой господарь начал жестоко расправляться с турками и вытеснять их со своих земель, а отправленного разгневанным султаном гонца возвращает с колом в голове...
    Release Date: 2018-11-23T08: 00: 00Z
    Genre: Action Adventure
    Artist: Осман Кая
    Name: Бесстрашные

    General
    Complete name : /Users/imac/HandBrake/Deliler.WEB-DL.1080p.HD.m4v
    Format : MPEG-4
    Codec ID : M4V (M4V /M4A /mp42/isom)
    File size : 4.25 GiB
    Duration : 2h 0mn
    Overall bit rate mode : Variable
    Overall bit rate : 5 044 Kbps
    Movie name : Бесстрашные
    Performer : Осман Кая
    Director : Осман Кая
    Actor : Джем Учан/Эркан Петеккая/Нур Феттахоглу/Йеткин Дикинджилер/Гюльшах Шахин/Исмаил Филиз/Batin Deniz Ucan/Namik Rüstem Khanli/Берат Эфэ Парлар/Камиль Гюлер
    Screenplay by : Esra Vesu Ozcelik/Ibrahim Ethem Arslan/Мустафа Бурак Догу
    Producer : Tenzile Rustemkhanli/Исмаил Филиз/Джихан Кая
    Production studio : Angel Film Yapim
    Genre : Action Adventure
    ContentType : Short Film
    Description : Середина XV века. Расцвет Османской империи. Преданный империи Влад Цепеш одобрен султаном Фатихом Мехмедом II на правление в вассальской Валахии. Но вскоре молодой господарь начал жестоко расправляться с турками и вытеснять их со своих земель, а отправленного разгневанным султаном гонца возвращает с колом в голове...
    Recorded date : UTC 2018-11-23 08: 00: 00
    Encoded date : UTC 2020-02-13 10: 12: 42
    Tagged date : UTC 2020-02-13 10: 14: 54
    Copyright : © 2020 Мегофильм
    Cover : Yes
    Rating : None
    Title/Sort : Бесстрашные
    LongDescription : Середина XV века. Расцвет Османской империи. Преданный империи Влад Цепеш одобрен султаном Фатихом Мехмедом II на правление в вассальской Валахии. Но вскоре молодой господарь начал жестоко расправляться с турками и вытеснять их со своих земель, а отправленного разгневанным султаном гонца возвращает с колом в голове. Фатих создал специальный отряд, прозванный отрядом бесстрашных, во главе которого было семеро лучших воинов империи. Османские воины-дели в звериных шкурах с крыльями на каркасе за спиной всегда отличались суровым нравом. Они выполнят любой приказ султана, а сейчас их миссия – уничтожить правителя Валахии. Да начнется бой!
    AppleStoreCatalogID : 1495364101
    Vendor : Apple: vendor_id: 2018-1179597
    ContentRating : ru-movie|16+|375|
    Video #1
    ID : 1
    Format : AVC
    Format/Info : Advanced Video Codec
    Format profile : High@L4
    Format settings : CABAC/5 Ref Frames
    Format settings, CABAC : Yes
    Format settings, ReFrames : 5 frames
    Codec ID : avc1
    Codec ID/Info : Advanced Video Coding
    Duration : 2h 0mn
    Bit rate : 4 492 Kbps
    Width : 1 920 pixels
    Height : 804 pixels
    Display aspect ratio : 2.40: 1
    Frame rate mode : Variable
    Frame rate : 24.000 fps
    Minimum frame rate : 23.810 fps
    Maximum frame rate : 24.390 fps
    Color space : YUV
    Chroma subsampling : 4: 2: 0
    Bit depth : 8 bits
    Scan type : Progressive
    Bits/(Pixel*Frame) : 0.121
    Stream size : 3.78 GiB (89%)
    Title : Main Program
    Language : English
    Encoded date : UTC 2020-02-13 10: 12: 42
    Tagged date : UTC 2020-02-13 10: 13: 56
    Color range : Limited
    Color primaries : BT.709
    Transfer characteristics : BT.709
    Matrix coefficients : BT.709
    Menus : 4, 5
    Codec configuration box : avcC
    Video #2
    ID : 5
    Format : JPEG
    Codec ID : jpeg
    Duration : 2h 0mn
    Bit rate mode : Variable
    Bit rate : 589 bps
    Width : 640 pixels
    Height : 268 pixels
    Display aspect ratio : 2.40: 1
    Frame rate mode : Variable
    Frame rate : 0.002 fps
    Minimum frame rate : 0.001 fps
    Maximum frame rate : 0.003 fps
    Color space : YUV
    Chroma subsampling : 4: 2: 0
    Bit depth : 8 bits
    Compression mode : Lossy
    Bits/(Pixel*Frame) : 1.717
    Stream size : 539 KiB (0%)
    Title : Chapter Images
    Language : English
    Default : No
    Encoded date : UTC 2020-02-13 10: 14: 00
    Tagged date : UTC 2020-02-13 10: 14: 01
    Menu For : 1
    ColorSpace_ICC : RGB
    Audio #1
    ID : 2
    Format : AAC LC
    Format/Info : Advanced Audio Codec Low Complexity
    Codec ID : mp4a-40-2
    Duration : 2h 0mn
    Source duration : 2h 0mn
    Bit rate mode : Variable
    Bit rate : 159 Kbps
    Maximum bit rate : 237 Kbps
    Channel(s) : 2 channels
    Channel layout : L R
    Sampling rate : 48.0 KHz
    Frame rate : 46.875 fps (1024 SPF)
    Compression mode : Lossy
    Stream size : 137 MiB (3%)
    Source stream size : 137 MiB (3%)
    Title : Russian Stereo
    Language : Russian
    Default : Yes
    Alternate group : 1
    Encoded date : UTC 2020-02-13 10: 12: 42
    Tagged date : UTC 2020-02-13 10: 13: 06
    Fallback From : 3
    Audio #2
    ID : 3
    Format : AC-3
    Format/Info : Audio Coding 3
    Commercial name : Dolby Digital
    Codec ID : ac-3
    Duration : 2h 0mn
    Bit rate mode : Constant
    Bit rate : 384 Kbps
    Channel(s) : 6 channels
    Channel layout : L R C LFE Ls Rs
    Sampling rate : 48.0 KHz
    Frame rate : 31.250 fps (1536 SPF)
    Compression mode : Lossy
    Stream size : 331 MiB (8%)
    Title : Russian DD 5.1
    Language : Russian
    Service kind : Complete Main
    Default : Inherited From: 2
    Alternate group : 1
    Encoded date : UTC 2020-02-13 10: 12: 42
    Tagged date : UTC 2020-02-13 10: 13: 56
    Fallback To : 2
    Menu #1
    00: 00: 00.000 : Глава 1
    00: 06: 20.666 : Глава 2
    00: 14: 45.874 : Глава 3
    00: 24: 41.040 : Глава 4
    00: 32: 04.998 : Глава 5
    00: 40: 28.623 : Глава 6
    00: 48: 45.206 : Глава 7
    00: 57: 01.206 : Глава 8
    01: 03: 50.622 : Глава 9
    01: 10: 21.788 : Глава 10
    01: 18: 58.746 : Глава 11
    01: 25: 46.912 : Глава 12
    01: 32: 38.412 : Глава 13
    01: 40: 04.120 : Глава 14
    01: 47: 24.286 : Глава 15
    Menu #2
    ID : 4
    Codec ID : text
    Duration : 2h 0mn
    Language : English
    Encoded date : UTC 2020-02-13 10: 13: 56
    Tagged date : UTC 2020-02-13 10: 13: 56
    Menu For : 1
    00: 00: 00.000 : Глава 1
    00: 06: 20.666 : Глава 2
    00: 14: 45.874 : Глава 3
    00: 24: 41.040 : Глава 4
    00: 32: 04.998 : Глава 5
    00: 40: 28.623 : Глава 6
    00: 48: 45.206 : Глава 7
    00: 57: 01.206 : Глава 8
    01: 03: 50.622 : Глава 9
    01: 10: 21.788 : Глава 10
    01: 18: 58.746 : Глава 11
    01: 25: 46.912 : Глава 12
    01: 32: 38.412 : Глава 13
    01: 40: 04.120 : Глава 14
    01: 47: 24.286 : Глава 15
    Скриншоты :


    Все одноименные релизы в Клубе
    Время раздачи: 24/7 (круглосуточно)


    Релиз подготовлен для просмотра наApple TV, iPad, iPhone, iPod Touch.
    Для просмотра данного релиза на компьютере с ОС Windows рекомендуется использоватьVLC media player

    Бесстрашные / Deliler (2018) WEB-DL [1080p] ATV торрент скачать бесплатно
    Рейтинг →
     (голосов: 1, оценка 5/5, голосовать можно 1 раз )

    Другие торренты по теме:

  • Бесстрашные / Deliler (2018) WEB-DL [H.264 / 1080p-LQ]
  • Бесстрашные / Deliler (2018) WEB-DLRip [H.265] [10-bit] [MVO]
  • Бесстрашные / Deliler (2018) WEB-DLRip [H.265] [10-bit] [MVO]


    • Комментарии (0):

      Информация

      Информация

        Посетители, находящиеся в группе Гости, не могут оставлять комментарии в данной новости.

        ↓ Меню




        ↓ Опрос

        Вы добавили сайт в закладки?
        Да
        Нет


        Популярное