.
Авторизация | Регистрация
bitok.xyz
Торрент скачать бесплатно Передачи торрент скачать Рыбалка в стиле Олд Скул (2015-2016) WEBRip (серии 1-18) торрент скачать бесплатно


    Рыбалка в стиле Олд Скул (2015-2016) WEBRip (серии 1-18) торрент скачать бесплатно

    Дата: 31-07-2017, 05:00 | .torrent скачали: 20

    Рыбалка в стиле Олд Скул (2015-2016) WEBRip (серии 1-18)Производство: Украина
    Жанр: Документальный, познавательный, рыбалка
    Режиссер: Максим Сальник
    Участники: Семён Олд

    Описание

    Широко известный старый киевский рыболов, блоггер и писатель Семён Олд поделится секретами успешной рыбалки на простые и доступные снасти.
    Продолжительность: 18 х ~ 00: 40: 00
    Качество видео: WEBRip
    Язык озвучки: русский
    Субтитры: отсутствуют
    Видео: Xvid, 800x600, 640х360, 720х480, ~1230-2494 kbps
    Аудио: MP3, 2 ch, 256 Kbps
    Общее
    Полное имя : F: КИНООлд Скул10. Олд Скул. Если ты полюбишь Ошитки.avi
    Формат : AVI
    Формат/Информация : Audio Video Interleave
    Размер файла : 562 Мбайт
    Продолжительность : 40 м. О таком странном сюжете не догадывалась даже Настя Каменских. 0 с.
    Общий поток : 1966 Кбит/сек
    Программа кодирования : Lavf56.25.101
    Видео
    Идентификатор : 0
    Формат : xvid
    Идентификатор кодека : xvid
    Продолжительность : 40 м. 0 с.
    Битрейт : 1697 Кбит/сек
    Ширина : 720 пикселей
    Высота : 480 пикселей
    Соотношение сторон : 3: 2
    Частота кадров : 30, 000 кадров/сек
    Тип развёртки : Прогрессивная
    Бит/(Пиксели*Кадры) : 0.164
    Размер потока : 485 Мбайт (86%)
    Аудио
    Идентификатор : 1
    Формат : MPEG Audio
    Версия формата : Version 1
    Профиль формата : Layer 3
    Режим : Joint stereo
    Расширение режима : MS Stereo
    Идентификатор кодека : 55
    Идентификатор кодека/Подсказка : MP3
    Продолжительность : 40 м. 0 с.
    Вид битрейта : Постоянный
    Битрейт : 256 Кбит/сек
    Каналы : 2 канала
    Частота : 44, 1 КГц
    Метод сжатия : С потерями
    Размер потока : 73, 2 Мбайт (13%)
    Выравнивание : Соединение по промежуткам
    Продолжительность промежутка : 26 мс. (0, 78 видеокадр)
    Время предзагрузки промежутка : 26 мс.
    Библиотека кодирования : LAME3.99.5


    Скриншоты для ознакомления



    Рыбалка в стиле Олд Скул (2015-2016) WEBRip (серии 1-18) торрент скачать бесплатно
    Рейтинг →
     (голосов: 1, оценка 3/5, голосовать можно 1 раз )

    Другие торренты по теме:

  • NGW: Рыбалка с Майком Иаконелли. Рыбалка в городе Остине / Fish My City With Mike Iaconelli (2018) HDTV [H.264 / 1080i-LQ]
  • Русская рыбалка Installsoft Edition (2009) [Ru] (3.7.5) License
  • Журнал | Рыбалка на Руси №1 (148) (Январь 2015) [PDF] скачать через торрент бесплатно
  • Журнал | Рыбалка на Руси №2 (149) (Февраль 2015) [PDF] скачать через торрент бесплатно
  • Журнал | Рыбалка на Руси №3 (150) (Март 2015) [PDF] скачать через торрент бесплатно
  • Winter Fishing / Зимняя рыбалка 3D 2 [Ru / En] - симулятор подлёдной зимней рыбалки скачать через торрент бесплатно
  • Fishing for kids / Рыбалка для детей 1.1.1 [En] скачать через торрент бесплатно
  • Рыбалка с Алексеем Фадеевым. Ловля дикого карпа (2013) WEBRip скачать через торрент бесплатно


    • Комментарии (0):

      Информация

      Информация

        Посетители, находящиеся в группе Гости, не могут оставлять комментарии в данной новости.

        ↓ Меню




        ↓ Опрос

        Вы добавили сайт в закладки?
        Да
        Нет


        Популярное