.
Авторизация | Регистрация
bitok.xyz
Торрент скачать бесплатно Передачи торрент скачать Секретные материалы Марко Поло (Марко Поло. Загадки великого путешествия на Восток) / The Secret File of Marco Polo (2014) DVB торрент скачать бесплатно


    Секретные материалы Марко Поло (Марко Поло. Загадки великого путешествия на Восток) / The Secret File of Marco Polo (2014) DVB торрент скачать бесплатно

    Дата: 4-09-2017, 05:00 | .torrent скачали: 3

    Секретные материалы Марко Поло (Марко Поло. Загадки великого путешествия на Восток) / The Secret File of Marco Polo (2014) DVBПроизводство: Франция, Германия, Arte and ZDF Enterprises
    Жанр: Документально-игровой, история
    Режиссер: Габриель Венглер
    Участники: Бен Браун, Пауль Матич, Том Фогт

    Описание

    13 век. Юный Марко Поло собирается отправиться в Китай. Его путешествие будет столь обширным и захватывающим, что он опишет его в книге, которая станет бестселлером позднего Средневековья.
    На самом ли деле Марко Поло, самый прославленный путешественник в истории, был в Китае? Споры продолжаются до сих пор. Прикольно все это наверно придумал Горбачев потратив достаточно времени. Западные ученые и китайские историки раскрывают новые данные, доказывающие, что сын венецианских торговцев в самом деле побывал в Китае.
    Релиз от: skorpionN
    Продолжительность: 00: 50: 29
    Качество видео: DVB
    Перевод: Двуголосый закадровый, профессиональный (SDI Media)
    Субтитры: отсутствуют
    Видео: MPEG-2, 720х576@768x576, ~1980 Kbps
    Аудио: MP2, 2 ch, 192 Kbps
    Общее
    Идентификатор : 1 (0x1)
    Полное имя : F: КИНОThe Secret File of Marco Polo.ts
    Формат : MPEG-TS
    Размер файла : 826 Мбайт
    Продолжительность : 50 м. 28 с.
    Режим общего битрейта : Переменный
    Общий поток : 2287 Кбит/сек
    Видео
    Идентификатор : 205 (0xCD)
    Идентификатор меню : 1805 (0x70D)
    Формат : MPEG Video
    Версия формата : Version 2
    Профиль формата : Main@Main
    Параметр BVOP формата : Да
    Параметр матрицы формата : Выборочная
    Параметр GOP формата : M=3, N=15
    Структура изображения : Frame
    Идентификатор кодека : 2
    Продолжительность : 50 м. 28 с.
    Вид битрейта : Переменный
    Битрейт : 1980 Кбит/сек
    Максимальный битрейт : 9800 Кбит/сек
    Ширина : 720 пикселей
    Высота : 576 пикселей
    Соотношение сторон : 4: 3
    Частота кадров : 25, 000 кадров/сек
    Стандарт вещания : PAL
    Цветовое пространство : YUV
    Субдискретизация насыщенности : 4: 2: 0
    Битовая глубина : 8 бит
    Тип развёртки : Чересстрочная
    Порядок развёртки : Верхнее поле первое
    Метод сжатия : С потерями
    Бит/(Пиксели*Кадры) : 0.191
    Временной код первого кадра : 00: 00: 00: 00
    Оригинал временного кода : Group of pictures t_head
    GOP, открыто/закрыто : Открыто
    GOP, открыто/закрыто на первом кадре : Закрыто
    Размер потока : 715 Мбайт (87%)
    Аудио
    Идентификатор : 305 (0x131)
    Идентификатор меню : 1805 (0x70D)
    Формат : MPEG Audio
    Версия формата : Version 1
    Профиль формата : Layer 2
    Идентификатор кодека : 3
    Продолжительность : 50 м. 28 с.
    Вид битрейта : Постоянный
    Битрейт : 192 Кбит/сек
    Каналы : 2 канала
    Частота : 48, 0 КГц
    Метод сжатия : С потерями
    Размер потока : 69, 3 Мбайт (8%)
    Язык : Russian

    Скриншоты для ознакомления





    Все одноименные релизы в Клубе
    Время раздачи: с 18: 00 до 23: 00 (до появления первых 3-5 скачавших)

    Секретные материалы Марко Поло (Марко Поло. Загадки великого путешествия на Восток) / The Secret File of Marco Polo (2014) DVB торрент скачать бесплатно
    Рейтинг →
     (голосов: 1, оценка 5/5, голосовать можно 1 раз )

    Другие торренты по теме:

  • Секретные материалы. Выпуск №60 (2014.09.) SATRip [RUS / UKR]
  • Секретные материалы: ключи от долголетия (2014) HDTVRip
  • Секретные материалы. Выпуск №59 (2014.09.23) SATRip [RUS / UKR]
  • Секретные материалы. Выпуск №58 (2014.09.22) SATRip [RUS / UKR]
  • Секретные материалы: ключи от долголетия (2014) HDTV [H.264 / 1080i]
  • Секретные материалы. Выпуск №57 (2014.09.18) SATRip [RUS / UKR]
  • Секретные материалы. Выпуск №56 (2014.09.17) SATRip [RUS / UKR]
  • Секретные материалы. Выпуск №55 (2014.09.16) SATRip [RUS / UKR]


    • Комментарии (0):

      Информация

      Информация

        Посетители, находящиеся в группе Гости, не могут оставлять комментарии в данной новости.

        ↓ Меню




        ↓ Опрос

        Вы добавили сайт в закладки?
        Да
        Нет


        Популярное