.
Авторизация | Регистрация

bitok.xyz

» » NG: Топ 10 Мегамонстры / Top 10 Biggest Beasts Ever (2015) HDTVRip [H.264 / 1080i-LQ] торрент скачать бесплатно


    NG: Топ 10 Мегамонстры / Top 10 Biggest Beasts Ever (2015) HDTVRip [H.264 / 1080i-LQ] торрент скачать бесплатно

    Дата: 4-11-2017, 05:00 | .torrent скачали: 0

    NG: Топ 10 Мегамонстры / Top 10 Biggest Beasts Ever (2015) HDTVRip [H.264 / 1080i-LQ]Производство: США, Produced By Blink Films UK LTD For National Geographic Channel
    Жанр: Документальный, познавательный, палеонтология
    Режиссер: Оливер Твинч
    Участники: Гарет Дайк, Брайан Фаррелл, Ричард Форрест и др.

    Описание

    Увлекательный рассказ о самых поразительных гигантах которые жили на планете Земля.
    Этот интересный и весьма незаурядный документальный фильм привлекает внимание в первую очередь тем, что действительно масштабирование в эволюции шло гигантскими шагами. В фильме показывают, что до того как миром стали править люди, земля была планетой гигантов. Змеи длиной с автобус, подводные убийцы, способные проглотить человека целиком и хищники, рядом с которыми , тиранозавр Рекс показался бы карликом. Но какое из существ, живших на планете, было самым крупным? С помощью самых современных открытий и новейших технологий, мы составили список из десяти самых крупных монстров, когда-то ходивших по суши, бороздивших моря и паривших в небесах.

    Релиз от: рип skorpionN
    Продолжительность: 01: 27: 05
    Качество видео: HDTVRip
    Перевод: Одноголосый закадровый, профессиональный (Велес)
    Субтитры: отсутствуют
    Видео: AVC/H.264, 1920 x 1080, ~7000 Kbps
    Аудио#1: AC3, 6 ch, 448 kbps | Русский (текст читает Сергей Куприянов)
    Аудио#2: AC3, 6 ch, 448 kbps | Английский
    Общее
    Уникальный идентификатор : 192953529442414667151652502125544248231 (0x91297F7E6CAD39919BA15477D51C93A7)
    Полное имя : F: КИНОTop 10_Biggest Beasts Ever_1080i.mkv
    Формат : Matroska
    Версия формата : Version 4/Version 2
    Размер файла : 4, 81 Гбайт
    Продолжительность : 1 ч. 27 м.
    Общий поток : 7900 Кбит/сек
    Дата кодирования : UTC 2017-11-01 11: 06: 54
    Программа кодирования : mkvmerge v17.0.0 (\'Be Ur Friend\') 64-bit
    Библиотека кодирования : libebml v1.3.5 + libmatroska v1.4.8
    Видео
    Идентификатор : 1
    Формат : AVC
    Формат/Информация : Advanced Video Codec
    Профиль формата : High@L4
    Настройки формата : CABAC/4 Ref Frames
    Параметр CABAC формата : Да
    Параметр RefFrames формата : 4 кадра
    Идентификатор кодека : V_MPEG4/ISO/AVC
    Продолжительность : 1 ч. 27 м.
    Битрейт : 7001 Кбит/сек
    Ширина : 1920 пикселей
    Высота : 1080 пикселей
    Соотношение сторон : 16: 9
    Режим частоты кадров : Переменный
    Частота кадров : 50, 000 кадров/сек
    Частота кадров в оригинале : 25, 000 кадров/сек
    Стандарт вещания : Component
    Цветовое пространство : YUV
    Субдискретизация насыщенности : 4: 2: 0
    Битовая глубина : 8 бит
    Тип развёртки : Чересстрочная
    Метод сохранения типа развёртки : Раздельные поля
    Порядок развёртки : Верхнее поле первое
    Бит/(Пиксели*Кадры) : 0.068
    Размер потока : 4, 26 Гбайт (89%)
    Default : Да
    Forced : Нет
    Цветовой диапазон : Limited
    Основные цвета : BT.709
    Характеристики трансфера : BT.709
    Коэффициенты матрицы : BT.709
    Аудио #1
    Идентификатор : 2
    Формат : AC-3
    Формат/Информация : Audio Coding 3
    Параметр Endianness формата : Big
    Идентификатор кодека : A_AC3
    Продолжительность : 1 ч. 27 м.
    Вид битрейта : Постоянный
    Битрейт : 448 Кбит/сек
    Каналы : 6 каналов
    Расположение каналов : Front: L C R, Side: L R, LFE
    Частота : 48, 0 КГц
    Частота кадров : 31, 250 кадров/сек (1536 SPF)
    Битовая глубина : 16 бит
    Метод сжатия : С потерями
    Размер потока : 279 Мбайт (6%)
    Язык : Russian
    ServiceKind/String : Complete Main
    Default : Нет
    Forced : Нет
    Аудио #2
    Идентификатор : 3
    Формат : AC-3
    Формат/Информация : Audio Coding 3
    Параметр Endianness формата : Big
    Идентификатор кодека : A_AC3
    Продолжительность : 1 ч. 27 м.
    Вид битрейта : Постоянный
    Битрейт : 448 Кбит/сек
    Каналы : 6 каналов
    Расположение каналов : Front: L C R, Side: L R, LFE
    Частота : 48, 0 КГц
    Частота кадров : 31, 250 кадров/сек (1536 SPF)
    Битовая глубина : 16 бит
    Метод сжатия : С потерями
    Размер потока : 279 Мбайт (6%)
    Язык : English
    ServiceKind/String : Complete Main
    Default : Да
    Forced : Нет

    Скриншоты для ознакомления




    Все одноименные релизы в Клубе
    Время раздачи: с 18: 00 до 23: 00 (до появления первых 3-5 скачавших)

    NG: Топ 10 Мегамонстры/Top 10 Biggest Beasts Ever (2015) HDTVRip [H.264/1080i-LQ]
    Рейтинг →
     (голосов: 1, оценка 4/5, голосовать можно 1 раз )

    Другие торренты по теме:



      Комментарии (0):

      Информация

      Информация

        Посетители, находящиеся в группе Гости, не могут оставлять комментарии в данной новости.

        ↓ Меню




        ↓ Опрос

        Вы добавили сайт в закладки?
        Да
        Нет


        Популярное

        Осторожно, Задов! Или похождения прапорщика (2004) DVDRip [H.264] (29 серий из 29)

        (скачиваний: 179)
        6 Кадров (2006-2015) SATRip / WEBRip (сезоны 1-8, выпуски 1-321 из) + Дополнения

        (скачиваний: 154)
        Однажды в России (2019.04.10) SATRip (сезон 9, выпуск 8)

        (скачиваний: 135)
        Михаил Задорнов. Лучшее - сборник лучших эстрадных номеров Михаила Задорнова за 30 лет (1984-2014) WEBRip скачать через торрент бесплатно

        (скачиваний: 131)
        Сборник выпусков киножурнала "Фитиль" (1960-2004) TVRip (серий 854)

        (скачиваний: 127)
        Адская кухня с Константином Ивлевым (2017) WEB-DLRip [H.264 / 720p-LQ] (сезон 1, выпуски 1-15 из 15 + Спецвыпуск)

        (скачиваний: 106)
        Счастливые люди: Другая жизнь. Алтай (2017) WEBRip [VP9 / 1080p] (cерии 1-4)

        (скачиваний: 106)
        Парад 7 ноября 1941 года на Красной площади (1941) VHSRip

        (скачиваний: 75)
        Рыбалка в России (2011-2013) TVRip [H.264] скачать через торрент бесплатно

        (скачиваний: 71)
        Адель. Концерт в Нью-Йорке / Adele Live in New York City (2016) HDTV [H.264 / 1080i]

        (скачиваний: 67)