.
Авторизация | Регистрация

bitok.xyz

» » Хоккей. Евро хоккей тур 2017—2018. Кубок Карьяла 2017. Канада – Швеция (10.11.2017) HDTVRip [H.264 / 720p-LQ] [hand made 50fps] торрент скачать бесплатно


    Хоккей. Евро хоккей тур 2017—2018. Кубок Карьяла 2017. Канада – Швеция (10.11.2017) HDTVRip [H.264 / 720p-LQ] [hand made 50fps] торрент скачать бесплатно

    Дата: 12-11-2017, 05:00 | .torrent скачали: 1

    Хоккей. Евро хоккей тур 2017—2018. Кубок Карьяла 2017. Канада – Швеция (10.11.2017) HDTVRip [H.264 / 720p-LQ] [hand made 50fps]Телекомпания: Матч! Игра HD
    Жанр: Спорт
    Комментатор: Михаил Мельников

    Описание
    10 ноября 2017 года, пятница. 19: 30 МСК
    Евро хоккей тур 2017—2018. Кубок Карьяла 2017
    Канада – Швеция
    Стадион: Хартвалл-Арена (Хельсинки, Финляндия), 2132 зрителя (16 % при вместимости 13464)
    Главные судьи: Ансси Салонен (Финляндия), Стефан Фонселиус (Финляндия)
    Релиз от: REXNN52
    Продолжительность: 01: 59: 49
    Качество видео: HDTVRip
    Язык озвучки: Русский
    Субтитры: отсутствуют
    Видео: AVC/H.264, 1280x720 (16: 9), ~ 3510 Kbps, 50 fps
    Аудио: AAC, 2 ch, 48.0 KHz, ~192 Kbps Код: выделить все
    Общее
    Уникальный идентификатор : 188444719530925230645333140174930157829 (0x8DC5220088563AF4A42CDE5CEAD3A105)
    Полное имя : F:SPORTХоккейЕвротур 17-18(10.11.2017)_EHT 17-18.Karjala Cup 2017. Canada - Sweden.mkv
    Формат : Matroska
    Версия формата : Version 4/Version 2
    Размер файла : 3, 10 Гбайт
    Продолжительность : 1 ч. 59 м.
    Общий поток : 3706 Кбит/сек
    Дата кодирования : UTC 2017-11-11 05:54:44
    Программа кодирования : mkvmerge v17.0.0 (\'Be Ur Friend\') 32-bit
    Библиотека кодирования : libebml v1.3.5 + libmatroska v1.4.8
    Видео
    Идентификатор : 1
    Формат : AVC
    Формат/Информация : Advanced Video Codec
    Профиль формата :High@L3.2
    Настройки формата : CABAC/1 Ref Frames
    Параметр CABAC формата : Да
    Параметр RefFrames формата : 1 кадр
    Идентификатор кодека : V_MPEG4/ISO/AVC
    Продолжительность : 1 ч. 59 м.
    Битрейт : 3510 Кбит/сек
    Ширина : 1280 пикселей
    Высота : 720 пикселей
    Соотношение сторон : 16:9
    Режим частоты кадров : Постоянный
    Частота кадров : 50, 000 кадров/сек
    Цветовое пространство : YUV
    Субдискретизация насыщенности : 4:2:0
    Битовая глубина : 8 бит
    Тип развёртки : Прогрессивная
    Бит/(Пиксели*Кадры) : 0.076
    Размер потока : 2, 94 Гбайт (95%)
    Default : Да
    Forced : Нет
    Цветовой диапазон : Limited
    Аудио
    Идентификатор : 2
    Формат : AAC
    Формат/Информация : Advanced Audio Codec
    Профиль формата : LC
    Идентификатор кодека : A_AAC-2
    Продолжительность : 1 ч. 59 м.
    Битрейт : 192 Кбит/сек
    Каналы : 2 канала
    Расположение каналов : Front: L R
    Частота : 48, 0 КГц
    Частота кадров : 46, 875 кадров/сек (1024 SPF)
    Метод сжатия : С потерями
    Размер потока : 165 Мбайт (5%)
    Язык : Russian
    Default : Да
    Forced : Нет

    Скриншоты для ознакомления



    Все одноименные релизы в Клубе
    Время раздачи: 24/7 (около 1 месяца)

    Хоккей. Евро хоккей тур 2017—2018. Кубок Карьяла 2017. Канада – Швеция (10.11.2017) HDTVRip [H.264/720p-LQ] [hand made 50fps]
    Рейтинг →
     (голосов: 1, оценка 5/5, голосовать можно 1 раз )

    Другие торренты по теме:

  • Хоккей. Евро хоккей тур 2016-2017. Кубок Первого канала. 3-й тур. Чехия — Швеция (18.12.2016) HDTVRip [H.264 / 1080p-LQ]
  • Хоккей. Евро хоккей тур 2017—2018. Кубок Карьяла 2017. Швейцария – Канада (08.11.2017) HDTVRip [H.264 / 720p-LQ] [hand made 50fps]
  • Хоккей. Евро хоккей тур 2017—2018. Кубок Карьяла 2017. Швеция – Чехия (08.11.2017) HDTVRip [H.264 / 720p-LQ] [hand made 50fps]
  • Хоккей. Евро хоккей тур 2017—2018. Кубок Карьяла 2017. Россия – Финляндия (09.11.2017) HDTVRip [H.264 / 720p-LQ] [hand made 50fps]
  • Хоккей. Евро хоккей тур 2017—2018. Кубок Карьяла 2017. Финляндия – Швеция (11.11.2017) HDTVRip [H.264 / 720p-LQ] [hand made 50fps]
  • Хоккей. Евро хоккей тур 2017—2018. Кубок Карьяла 2017. Швейцария – Россия (11.11.2017) HDTVRip [H.264 / 720p-LQ] [hand made 50fps]
  • Хоккей. Евро хоккей тур 2017—2018. Кубок Карьяла 2017. Чехия – Швейцария (10.11.2017) HDTVRip [H.264 / 720p-LQ] [hand made 50fps]
  • Хоккей. Евро хоккей тур 2017—2018. Кубок Карьяла 2017. Россия – Чехия (12.11.2017) HDTVRip [H.264 / 720p-LQ] [hand made 50fps]


    • Комментарии (0):

      Информация

      Информация

        Посетители, находящиеся в группе Гости, не могут оставлять комментарии в данной новости.

        ↓ Меню




        ↓ Опрос

        Вы добавили сайт в закладки?
        Да
        Нет


        Популярное

        6 Кадров (2006-2015) SATRip / WEBRip (сезоны 1-8, выпуски 1-321 из) + Дополнения

        (скачиваний: 111)
        Сборник выпусков киножурнала "Фитиль" (1960-2004) TVRip (серий 854)

        (скачиваний: 97)
        Однажды в России (2019.04.10) SATRip (сезон 9, выпуск 8)

        (скачиваний: 92)
        Михаил Задорнов. Лучшее - сборник лучших эстрадных номеров Михаила Задорнова за 30 лет (1984-2014) WEBRip скачать через торрент бесплатно

        (скачиваний: 81)
        Адская кухня с Константином Ивлевым (2017) WEB-DLRip [H.264 / 720p-LQ] (сезон 1, выпуски 1-15 из 15 + Спецвыпуск)

        (скачиваний: 71)
        Счастливые люди: Другая жизнь. Алтай (2017) WEBRip [VP9 / 1080p] (cерии 1-4)

        (скачиваний: 68)
        Парад 7 ноября 1941 года на Красной площади (1941) VHSRip

        (скачиваний: 68)
        Минута славы (2017.02.18) HDTVRip [H.264 / 720p] (выпуск 3)

        (скачиваний: 52)
        Александр Градский - Обернитесь (2014) SATRip скачать через торрент бесплатно

        (скачиваний: 47)
        Хоккей. Суперсерия - 1972. СССР - Канада. 1 матч (2008) SATRip скачать через торрент бесплатно

        (скачиваний: 46)