.
Авторизация | Регистрация
bitok.xyz
Торрент скачать бесплатно Передачи торрент скачать Новогодний Голубой огонек на Шаболовке (2018.01.01) SATRip (части 1-3 из 3) торрент скачать бесплатно


    Новогодний Голубой огонек на Шаболовке (2018.01.01) SATRip (части 1-3 из 3) торрент скачать бесплатно

    Дата: 1-01-2018, 05:00 | .torrent скачали: 13

    Новогодний Голубой огонек на Шаболовке (2018.01.01) SATRip (части 1-3 из 3)Телекомпания: Россия
    Жанр: Музыкальные шоу
    Ведущие: Андрей Малахов и Кристина Орбакайте, Николай Басков и Нонна Гришаева, Юрий Гальцев и Наталья Медведева.

    Описание

    Участники старого доброго Голубого огонька ждут всех в своей веселой компании!
    Создатели шоу и авторы сценария подготовили много сюрпризов. Самые яркие звезды российской эстрады предстанут перед телезрителями в необычных образах и выступят неожиданными дуэтами.
    Лев Лещенко и Диана Ди споют о зиме… красиво! Ведь в качестве декорации на сцене – необычайной величины волшебный снежный шар, в котором играют дети.
    Полина Гагарина и Валерия свои дуэтом убеждают Иосифа Кобзона в том, что он настоящий король. Но ему самому вовсе не нужна никакая корона, зато он может дать полезные советы начинающим певцам!
    Новый год – семейный праздник. Поэтому Филипп Киркоров сегодня выступает в компании своих детей – они споют песенку о веселых бабушках, которые не только сидят на лавочке, но и любят танцевать. А Лариса Долина пришла на праздник со своей внучкой – вместе они споют песню про домового.
    Продолжительность: 05: 24: 49
    Качество видео: SATRip
    Субтитры: Отсутствуют
    Видео: MPEG4, XviD, 720x400 (16: 9), 25.000 fps, 1 799 Kbps (0.250 bit/pixel)
    Аудио: MP3, 48.0 KHz, 2 ch, 192 Kbps, CBR Код: выделить все Общее
    Полное имя : D:[1]Новогодний Голубой огонекНовогодний Голубой огонек (2018.01.01)Новогодний Голубой огонек. Часть 1 (2018.01.01).avi
    Формат : AVI
    Формат/Информация : Audio Video Interleave
    Размер файла : 1, 12 Гбайт
    Продолжительность : 1 ч. 20 м.
    Общий поток : 2001 Кбит/сек
    Программа кодирования : VirtualDubMod 1.5.10.3 |www.virtualdub-fr.org|| (build 2550/release)
    Библиотека кодирования : VirtualDub build 29808/release
    Видео
    Идентификатор : 0
    Формат : MPEG-4 Visual
    Профиль формата : Advanced Simple@L5
    Параметр BVOP формата : 1
    Параметр QPel формата : Нет
    Параметр GMC формата : Без точки перехода
    Параметр матрицы формата : Default (H.263)
    Идентификатор кодека : XVID
    Идентификатор кодека/Подсказка : XviD
    Продолжительность : 1 ч. 20 м.
    Битрейт : 1799 Кбит/сек
    Ширина : 720 пикселей
    Высота : 400 пикселей
    Соотношение сторон : 16:9
    Частота кадров : 25, 000 кадров/сек
    Цветовое пространство : YUV
    Субдискретизация насыщенности : 4:2:0
    Битовая глубина : 8 бит
    Тип развёртки : Прогрессивная
    Метод сжатия : С потерями
    Бит/(Пиксели*Кадры) : 0.250
    Размер потока : 1, 01 Гбайт (90%)
    Библиотека кодирования : XviD 1.2.1 (UTC 2008-12-04)
    Аудио
    Идентификатор : 1
    Формат : MPEG Audio
    Версия формата : Version 1
    Профиль формата : Layer 3
    Идентификатор кодека : 55
    Идентификатор кодека/Подсказка : MP3
    Продолжительность : 1 ч. 20 м.
    Вид битрейта : Постоянный
    Битрейт : 192 Кбит/сек
    Каналы : 2 канала
    Частота : 48, 0 КГц
    Метод сжатия : С потерями
    Размер потока : 110 Мбайт (10%)
    Выравнивание : Соединение по промежуткам
    Продолжительность промежутка : 40 мс. (1, 00 видеокадр)
    Время предзагрузки промежутка : 504 мс.
    Библиотека кодирования : LAME3.99r
    Настройки программы : -m s -V 4 -q 9 -lowpass 18.6 -b 192

    Новогодний Голубой огонек на Шаболовке (2018.01.01) SATRip (части 1-3 из 3) торрент скачать бесплатно
    Рейтинг →
     (голосов: 1, оценка 3/5, голосовать можно 1 раз )

    Другие торренты по теме:

  • Новогодний голубой огонек "Самая высокая..." (2 части) (1967) DVDRip [H.264] [hand made colored / full colourization] скачать через торрент бесплатно
  • Новогодний Голубой огонек 2016 (2016.01.01) SATRip (части 1-3 из 3) скачать через торрент бесплатно
  • Новогодний Голубой огонек 2016 (2016.01.01) HDTV [H.264 / 1080i-LQ] (части 1-3 из 3) скачать через торрент бесплатно
  • Новогодний Голубой огонек 2015 (2015.01.01) HDTVRip [H.264 / 720p] (части 1-3 из 3) скачать через торрент бесплатно
  • Новогодний Голубой огонек 2018 (31.12.2018) SATRip (3 части из 3)


    • Комментарии (0):

      Информация

      Информация

        Посетители, находящиеся в группе Гости, не могут оставлять комментарии в данной новости.

        ↓ Меню




        ↓ Опрос

        Вы добавили сайт в закладки?
        Да
        Нет


        Популярное