.
Авторизация | Регистрация

bitok.xyz

» » Военная тайна с Игорем Прокопенко (2015.02.28) SATRip скачать через торрент бесплатно


    Военная тайна с Игорем Прокопенко (2015.02.28) SATRip скачать через торрент бесплатно

    Дата: 1-03-2015, 04:00 | .torrent скачали: 95

    Военная тайна с Игорем Прокопенко (2015.02.28) SATRip скачать через торрент бесплатноТелекомпания: РЕН
    Жанр: Документальный

    Описание

    Военная тайна — одна из старейших программ на нашем канале, которая имеет очень устойчивую аудиторию и которой нет аналогов на отечественном телевидении. Её содержание полностью соответствует интригующему названию: своими секретами с ведущим и корреспондентами программы делятся военные и политики, разведчики, шпионы и диверсанты, террористы и сотрудники спецслужб. Визитная карточка программы — это эксклюзивная информация, уникальные документы и видеосъемка. Объект исследования парадоксальные события, оставившие след в нашей истории, а также тайные пружины, которые подчас приводят в действие механизм обеспечения безопасности государства.
    Ведущий: Игорь Прокопенко
    Качество видео: SATRip
    Продолжительность: 02: 54: 40
    Видеокодек: XviD
    Битрейт видео: ~1500 kb/s
    Размер кадра: 704 x 448
    Аудиокодек: MP3, 2ch.
    Битрейт аудио: 128 kb/s Код:
    Формат : AVI
    Формат/Информация : Audio Video Interleave
    Профиль формата : OpenDML
    Размер файла : 2, 00 Гбайт
    Продолжительность : 2 ч. Белая горячка, сказал кто то из толпы, к чему не понятно. 54 м.
    Общий поток : 1636 Кбит/сек
    Программа кодирования : VirtualDubMod 1.5.10.2 (build 2540/release)
    Библиотека кодирования : VirtualDubMod build 2540/release
    Видео
    Идентификатор : 0
    Формат : MPEG-4 Visual
    Профиль формата : Advanced Simple@L5
    Параметр BVOP формата : 2
    Параметр QPel формата : Нет
    Параметр GMC формата : Без точки перехода
    Параметр матрицы формата : Default (MPEG)
    Режим смешивания : Сжатый битовый поток
    Идентификатор кодека : XVID
    Идентификатор кодека/Подсказка : XviD
    Продолжительность : 2 ч. Прикольно все это наверно придумал Халк потратив достаточно времени. 54 м.
    Битрейт : 1495 Кбит/сек
    Ширина : 704 пикселя
    Высота : 448 пикселей
    Соотношение сторон : 16:10
    Частота кадров : 25, 000 кадров/сек
    Цветовое пространство : YUV
    Субдискретизация насыщенности : 4:2:0
    Битовая глубина : 8 бит
    Тип развёртки : Прогрессивная
    Метод сжатия : С потерями
    Бит/(Пиксели*Кадры) : 0.190
    Размер потока : 1, 82 Гбайт (91%)
    Библиотека кодирования : XviD 65
    Аудио
    Идентификатор : 1
    Формат : MPEG Audio
    Версия формата : Version 1
    Профиль формата : Layer 3
    Режим : Joint stereo
    Идентификатор кодека : 55
    Идентификатор кодека/Подсказка : MP3
    Продолжительность : 2 ч. 54 м.
    Вид битрейта : Постоянный
    Битрейт : 128 Кбит/сек
    Каналы : 2 канала
    Частота : 48, 0 КГц
    Метод сжатия : С потерями
    Размер потока : 160 Мбайт (8%)
    Выравнивание : Соединение по промежуткам
    Продолжительность промежутка : 40 мс. О таком странном сюжете не догадывалась даже Шакира. (1, 00 видеокадр)
    Время предзагрузки промежутка : 504 мс.


    Скриншоты для ознакомления




    Военная тайна с Игорем Прокопенко (2015.02.28) SATRip
    Рейтинг →
     (голосов: 1, оценка 3/5, голосовать можно 1 раз )

    Другие торренты по теме:

  • Военная тайна с Игорем Прокопенко (27.09.2014) SATRip
  • Военная тайна с Игорем Прокопенко (2014.10.04) SATRip скачать через торрент бесплатно
  • Военная тайна с Игорем Прокопенко (2014.10.11) SATRip
  • Военная тайна с Игорем Прокопенко (2014.10.18) SATRip
  • Военная тайна с Игорем Прокопенко (2014.10.25) SATRip
  • Военная тайна с Игорем Прокопенко (2014.11.15) SATRip
  • Военная тайна с Игорем Прокопенко (2014.11.29) SATRip
  • Военная тайна с Игорем Прокопенко (2014.12.06) SATRip скачать через торрент бесплатно


    • Комментарии (0):

      Информация

      Информация

        Посетители, находящиеся в группе Гости, не могут оставлять комментарии в данной новости.

        ↓ Меню




        ↓ Опрос

        Вы добавили сайт в закладки?
        Да
        Нет


        Популярное

        6 Кадров (2006-2015) SATRip / WEBRip (сезоны 1-8, выпуски 1-321 из) + Дополнения

        (скачиваний: 111)
        Сборник выпусков киножурнала "Фитиль" (1960-2004) TVRip (серий 854)

        (скачиваний: 98)
        Однажды в России (2019.04.10) SATRip (сезон 9, выпуск 8)

        (скачиваний: 93)
        Михаил Задорнов. Лучшее - сборник лучших эстрадных номеров Михаила Задорнова за 30 лет (1984-2014) WEBRip скачать через торрент бесплатно

        (скачиваний: 83)
        Счастливые люди: Другая жизнь. Алтай (2017) WEBRip [VP9 / 1080p] (cерии 1-4)

        (скачиваний: 72)
        Адская кухня с Константином Ивлевым (2017) WEB-DLRip [H.264 / 720p-LQ] (сезон 1, выпуски 1-15 из 15 + Спецвыпуск)

        (скачиваний: 71)
        Парад 7 ноября 1941 года на Красной площади (1941) VHSRip

        (скачиваний: 68)
        Минута славы (2017.02.18) HDTVRip [H.264 / 720p] (выпуск 3)

        (скачиваний: 52)
        Александр Градский - Обернитесь (2014) SATRip скачать через торрент бесплатно

        (скачиваний: 47)
        Хоккей. Суперсерия - 1972. СССР - Канада. 1 матч (2008) SATRip скачать через торрент бесплатно

        (скачиваний: 46)