ВАЖНО! Сайт скоро заблокируют! Подписывайся на наш канал в Telegram https://t.me/torrentok и получи доступ к торрентам без ограничений!
.
Авторизация | Регистрация
bitok.xyz
Торрент скачать бесплатно Передачи торрент скачать Чистая победа. Сталинград (2018) SATRip торрент скачать бесплатно


    Чистая победа. Сталинград (2018) SATRip торрент скачать бесплатно

    Дата: 4-02-2018, 05:00 | .torrent скачали: 66

    Чистая победа. Сталинград (2018) SATRipТелекомпания: Россия, Краснодарская киностудия
    Жанр: Документальный, война, история
    Режиссер: Валерий Тимощенко

    Описание

    Победа всегда таинственна. И чем значительнее, тем она загадочнее. Под Сталинградом нам противостояла несомненно лучшая армия в мире, покорившая и подчинившая всю Европу. На острие атаки - группировка немецких войск под командованием Фридриха Паулюса. Хорошо известно его умение молниеносно перебросить и сосредоточить в нужном месте крупные силы и в нужную минуту создать подавляющее преимущество. Идеальная машина для убийства двинулась на нас.
    В феврале 1943-го, Красная Армия не только остановила наступление фашистских войск, развеяла миф о непобедимости вермахта, но и положила начало полному разгрому гитлеровской Германии.
    Релиз от: alf62
    Продолжительность: 00: 44: 00
    Качество видео: SATRip
    Видео: Xvid, 720x400, ~1800 Kbps
    Аудио: AC3, 2 ch, 192 Kbps
    Чистая победа. СталинградЧистая.победа.Сталинград.2018.XviD.SATRip.alf62.avi
    Формат : AVI
    Формат/Информация : Audio Video Interleave
    Размер файла : 630 Мбайт
    Продолжительность : 44 м.
    Общий поток : 2002 Кбит/сек
    Программа кодирования : VirtualDubMod 1.5.10.3 |www.virtualdub-fr.org|| (build 2550/release)
    Библиотека кодирования : VirtualDubMod build 2550/release
    Видео
    Идентификатор : 0
    Формат : MPEG-4 Visual
    Профиль формата : Advanced Simple@L5
    Параметр BVOP формата : 2
    Параметр QPel формата : Нет
    Параметр GMC формата : Без точки перехода
    Параметр матрицы формата : Default (MPEG)
    Идентификатор кодека : XVID
    Идентификатор кодека/Подсказка : XviD
    Продолжительность : 44 м.
    Битрейт : 1800 Кбит/сек
    Ширина : 720 пикселей
    Высота : 400 пикселей
    Соотношение сторон : 16: 9
    Частота кадров : 25, 000 кадров/сек
    Цветовое пространство : YUV
    Субдискретизация насыщенности : 4: 2: 0
    Битовая глубина : 8 бит
    Тип развёртки : Прогрессивная
    Метод сжатия : С потерями
    Бит/(Пиксели*Кадры) : 0.250
    Размер потока : 567 Мбайт (90%)
    Библиотека кодирования : XviD 73
    Аудио
    Идентификатор : 1
    Формат : AC-3
    Формат/Информация : Audio Coding 3
    Расширение режима : CM (complete main)
    Параметр Endianness формата : Big
    Идентификатор кодека : 2000
    Продолжительность : 44 м.
    Вид битрейта : Постоянный
    Битрейт : 192 Кбит/сек
    Каналы : 2 канала
    Расположение каналов : Front: L R
    Частота : 48, 0 КГц
    Битовая глубина : 16 бит
    Метод сжатия : С потерями
    Размер потока : 60, 4 Мбайт (10%)
    Выравнивание : Разделение по промежуткам
    Продолжительность промежутка : 40 мс. (1, 00 видеокадр)
    Время предзагрузки промежутка : 500 мс.

    Скриншоты для ознакомления







    Все одноименные релизы в Клубе
    Время раздачи: до появления первых 3-5 скачавших

    Чистая победа. Сталинград (2018) SATRip торрент скачать бесплатно
    Рейтинг →
     (голосов: 1, оценка 3/5, голосовать можно 1 раз )

    Другие торренты по теме:

  • Величайшее воздушное сражение в истории. Чистая победа (2015) TVRip
  • Иппон - Чистая победа (2016) SATRip
  • Чистая победа (2013-2017) IPTVRip (Серий 1-5 из 5)
  • Чистая победа. Битва за Днепр (2018) SATRip
  • Чистая победа. Операция «Багратион» (2019) SATRip


    • Комментарии (0):

      Информация

      Информация

        Посетители, находящиеся в группе Гости, не могут оставлять комментарии в данной новости.

        ↓ Меню




        Популярное

        Джон Максвелл | Прокачай свое лидерство (2016) [FB2]

        (скачиваний: 4)
        Максим Малявин | Записки психиатра. Лучшее, или Блог добрых психиатров (2016) [FB2]

        (скачиваний: 4)
        Сергей Тармашев | Что посеешь (2016) [FB2]

        (скачиваний: 3)
        Октябрина Ганичкина, Александр Ганичкин | Золотая энциклопедия. Огород на 6 сотках. Секреты для ленивых дачников от Октябрины Ганичкиной (2017) [FB2]

        (скачиваний: 3)
        Наталья Сердцева | Теория относительности Эйнштейна за 1 час (2017) [FB2, RTF]

        (скачиваний: 2)
        6 Кадров (2006-2015) SATRip / WEBRip (сезоны 1-8, выпуски 1-321 из) + Дополнения

        (скачиваний: 2)
        Александр Герчик, Татьяна Лукашевич | Биржа для блондинок (2014) [FB2]
        Автор: Александр Герчик, Татьяна ЛукашевичИздательство: Альпина ПаблишерISBN: 978-5-9614...
        (скачиваний: 2)
        Последние 24 часа (2019-2020) WEB-DL [H.264 / 1080p-LQ] (выпуски 1-5 из ) (обновляемая)

        (скачиваний: 2)
        Документальное кино Леонида Млечина (2002-2015) DVB (серии 1- 67 из ) (обновляемая) скачать через торрент бесплатно

        (скачиваний: 2)
        Ху из мистер Путин / Who is Mr. Putin (2015) WEBRip [H.264 / 720p-LQ] скачать через торрент бесплатно

        (скачиваний: 2)