.
Авторизация | Регистрация
bitok.xyz
» » Всемирное природное наследие: (Удивительная Индия) / World Natural Heritage: Amazing India (2018) WEBRip [VP9 / 2160p] [4K, HDR] [EN] торрент скачать бесплатно


    Всемирное природное наследие: (Удивительная Индия) / World Natural Heritage: Amazing India (2018) WEBRip [VP9 / 2160p] [4K, HDR] [EN] торрент скачать бесплатно

    Дата: 8-06-2018, 05:00 | .torrent скачали: 3

    Всемирное природное наследие: (Удивительная Индия) / World Natural Heritage: Amazing India (2018) WEBRip [VP9 / 2160p] [4K, HDR] [EN]Производство: Германия, Busch Media Group
    Жанр: Видовой, природа, флора, фауна
    Режиссер: Саймон Буш

    Описание

    Экскурсия по Индии - достопримечательности, обряды, торговые ряды, повседневная жизнь. Присоединяйтесь и будьте свидетелями нашей экспедиции, полной приключений и потрясающих видов! Тысячелетняя цивилизация - мифическая и загадочная, богатая древними традициями, архитектурой, культурой и религией...
    Релиз от: Мастер 5
    Продолжительность: 02: 01: 23
    Качество видео: WEBRip
    Перевод: отсутствует
    Субтитры: отсутствуют
    Видео: VP9, 3840x2160, ~17.1 Mbps
    Аудио: Vorbis, 2 ch, 128 Kbps
    Общее
    Уникальный идентификатор : 211236847233085002650777908168243723546 (0x9EEABCA863A194E499D0E2D5A232BD1A)
    Полное имя : F: КИНОAmazing India Relaxation. 4K Ultra HD 2160p.Master5.mkv
    Формат : Matroska
    Версия формата : Version 4/Version 2
    Размер файла : 7, 23 Гбайт
    Продолжительность : 1 ч. 0 м.
    Режим общего битрейта : Переменный
    Общий поток : 17, 2 Мбит/сек
    Название фильма : Amazing India Relaxation. 4K Ultra HD 2160p.Master5
    Дата кодирования : UTC 2018-06-07 15: 01: 44
    Программа кодирования : mkvmerge v8.1.0 (\'Psychedelic Postcard\') 32bit
    Библиотека кодирования : libebml v1.3.1 + libmatroska v1.4.2
    Видео
    Идентификатор : 1
    Формат : VP9
    Идентификатор кодека : V_VP9
    Продолжительность : 1 ч. 0 м.
    Битрейт : 17, 1 Мбит/сек
    Ширина : 3840 пикселей
    Высота : 2160 пикселей
    Соотношение сторон : 16: 9
    Режим частоты кадров : Переменный
    Частота кадров : 32, 129 кадра/сек
    Бит/(Пиксели*Кадры) : 0.064
    Размер потока : 7, 18 Гбайт (99%)
    Заголовок : Amazing India Relaxation. 4K Ultra HD 2160p.Master5
    Default : Да
    Forced : Нет
    Аудио
    Идентификатор : 2
    Формат : Vorbis
    Параметр Floor формата : 1
    Идентификатор кодека : A_VORBIS
    Продолжительность : 1 ч. 0 м.
    Вид битрейта : Переменный
    Битрейт : 128 Кбит/сек
    Каналы : 2 канала
    Частота : 44, 1 КГц
    Частота кадров : 65, 744 кадров/сек (671 SPF)
    Метод сжатия : С потерями
    Размер потока : 45, 7 Мбайт (1%)
    Заголовок : Amazing India Relaxation. 4K Ultra HD 2160p.Master5
    Программа кодирования : Google
    Default : Да
    Forced : Нет

    Скриншоты для ознакомления



    Все одноименные релизы в Клубе
    Время раздачи: с 18: 00 до 23: 00 (до появления первых 3-5 скачавших)

    Всемирное природное наследие: (Удивительная Индия)/World Natural Heritage: Amazing India (2018) WEBRip [VP9/2160p] [4K, HDR] [EN]
    Рейтинг →
     (голосов: 1, оценка 4/5, голосовать можно 1 раз )

    Другие торренты по теме:

  • Всемирное природное наследие: (парк Брайс-Каньон) / World Natural Heritage: Bryce Canyon National Park (2018) WEBRip [VP9 / 2160p] [4K, HDR]
  • Всемирное природное наследие: (Национальный парк Mana Pools, Африка) / African Wildlife: Mana Pools National Park, Zimbabwe, Africa (2018) WEBRip [VP9 / 2160p] [4K, HDR]
  • Всемирное природное наследие: Всемирный рай / World paradise (2018) WEBRip [VP9 / 2160p] [4K, HDR] (Часть 2)
  • Всемирное природное наследие: Всемирный рай / World paradise (2018) WEBRip [VP9 / 2160p] [4K, HDR]
  • Всемирное природное наследие. Удивительная планета / Amazing Planet (2018) WEBRip [VP9 / 2160p] [4K, HDR]
  • Всемирное природное наследие. Всемирный рай / World paradise (2018) WEBRip [VP9 / 2160p] [4K, HDR] (Часть 3)
  • Всемирное природное наследие. Национальный парк Лос-Гласьярес / Los Glaciares National Park (2018) WEBRip [VP9 / 2160p] [4K]
  • Всемирное природное наследие. День в Карибском бассейне / A Day in the Caribbean (2018) WEBRip [VP9 / 1440p-LQ] [4K]


    • Комментарии (0):

      Информация

      Информация

        Посетители, находящиеся в группе Гости, не могут оставлять комментарии в данной новости.

        ↓ Меню




        ↓ Опрос

        Вы добавили сайт в закладки?
        Да
        Нет


        Популярное

        Михаил Задорнов. Лучшее - сборник лучших эстрадных номеров Михаила Задорнова за 30 лет (1984-2014) WEBRip скачать через торрент бесплатно

        (скачиваний: 1719)
        СССР. Знак качества с Гариком Сукачевым (2019) SATRip (1 серия из ) (Обновляемая)

        (скачиваний: 115)
        Счастливые люди: Другая жизнь. Алтай (2017) WEBRip [VP9 / 1080p] (cерии 1-4)

        (скачиваний: 115)
        Битва экстрасенсов (2011-2016) (сезоны 11-16 (все выпуски)+спецвыпуски) SATRip

        (скачиваний: 88)
        На ножах (2018-2019) WEBRip [H.264 / 720p-LQ] (сезон 4, выпуски 1-15 из ) (обновляемая)

        (скачиваний: 66)
        Элвис Пресли: Искатель / Elvis Presley: The Searcher (2018) HDTV [H.264 / 1080i-LQ] (серия 1 из 2) (Обновляемая)

        (скачиваний: 65)
        Дмитрий Несветов | Кончина СССР. Что это было (2016) [FB2]

        (скачиваний: 61)
        Квартирник НТВ у Маргулиса. Новогодний выпуск. Незваные гости (31.12.2018) SATRip

        (скачиваний: 59)
        Сборник выпусков киножурнала "Фитиль" (1960-2004) TVRip (серий 854)

        (скачиваний: 59)
        Русские евреи (2016-2017) HDTVRip [H.264 / 1080p-LQ]

        (скачиваний: 55)