.
Авторизация | Регистрация
bitok.xyz
Торрент скачать бесплатно Передачи торрент скачать NGW: Рыбалка с Майком Иаконелли. Самая быстрая рыба в Майами / Fish My City With Mike Iaconelli. The fastest fish in Miami (2018) HDTV [H.264 / 1080i-LQ] торрент скачать бесплатно


    NGW: Рыбалка с Майком Иаконелли. Самая быстрая рыба в Майами / Fish My City With Mike Iaconelli. The fastest fish in Miami (2018) HDTV [H.264 / 1080i-LQ] торрент скачать бесплатно

    Дата: 19-10-2018, 05:00 | .torrent скачали: 5

    NGW: Рыбалка с Майком Иаконелли. Самая быстрая рыба в Майами / Fish My City With Mike Iaconelli. The fastest fish in Miami (2018) HDTV [H.264 / 1080i-LQ]Производство: США, Natural History New Zealand, National Geographic
    Жанр: Документальный, рыбалка

    Описание

    Майами известен как Волшебный город, Флорида - как рыбацкая столица мира, а Майк известен как человек, который обожает вызовы, которые ставит перед ним жизнь.
    Релиз от: Zakol
    Продолжительность: 00: 43: 48
    Качество видео: HDTV
    Перевод: Одноголосый закадровый, профессиональный (Велес)
    Субтитры: отсутствуют
    Видео: AVC/H.264, 1920x1080, ~6500 Kbps
    Аудио#1: MP2, 2 ch, 192 Kbps | Русский (текст читал: С.Воронецкий)
    Аудио#2: MP2, 2 ch, 192 Kbps | Английский
    Общее
    Идентификатор : 1 (0x1)
    Полное имя : F: КИНОРыбалка с Майком Иак. Сам. быс. рыба в Майами 1080 .ts
    Формат : MPEG-TS
    Размер файла : 2, 20 Гбайт
    Продолжительность : 43 м. 48 с.
    Режим общего битрейта : Переменный
    Общий поток : 7200 Кбит/сек
    Видео
    Идентификатор : 1154 (0x482)
    Идентификатор меню : 135 (0x87)
    Формат : AVC
    Формат/Информация : Advanced Video Codec
    Профиль формата : Main@L4
    Настройки формата : CABAC/2 Ref Frames
    Параметр CABAC формата : Да
    Параметр RefFrames формата : 2 кадра
    Идентификатор кодека : 27
    Продолжительность : 43 м. 48 с.
    Вид битрейта : Постоянный
    Битрейт : 6500 Кбит/сек
    Ширина : 1920 пикселей
    Высота : 1080 пикселей
    Соотношение сторон : 16: 9
    Частота кадров : 25, 000 кадров/сек
    Цветовое пространство : YUV
    Субдискретизация насыщенности : 4: 2: 0
    Битовая глубина : 8 бит
    Тип развёртки : Чересстрочная
    Метод сохранения типа развёртки : Раздельные поля
    Порядок развёртки : Верхнее поле первое
    Бит/(Пиксели*Кадры) : 0.125
    Размер потока : 1, 98 Гбайт (90%)
    Аудио #1
    Идентификатор : 1155 (0x483)
    Идентификатор меню : 135 (0x87)
    Формат : MPEG Audio
    Версия формата : Version 1
    Профиль формата : Layer 2
    Идентификатор кодека : 3
    Продолжительность : 43 м. 48 с.
    Вид битрейта : Постоянный
    Битрейт : 192 Кбит/сек
    Каналы : 2 канала
    Частота : 48, 0 КГц
    Частота кадров : 41, 667 кадра/сек (1152 SPF)
    Метод сжатия : С потерями
    Размер потока : 60, 2 Мбайт (3%)
    Язык : Russian
    Аудио #2
    Идентификатор : 1156 (0x484)
    Идентификатор меню : 135 (0x87)
    Формат : MPEG Audio
    Версия формата : Version 1
    Профиль формата : Layer 2
    Идентификатор кодека : 3
    Продолжительность : 43 м. 48 с.
    Вид битрейта : Постоянный
    Битрейт : 192 Кбит/сек
    Каналы : 2 канала
    Частота : 48, 0 КГц
    Частота кадров : 41, 667 кадра/сек (1152 SPF)
    Метод сжатия : С потерями
    Размер потока : 60, 2 Мбайт (3%)
    Язык : English

    Скриншоты для ознакомления



    Все одноименные релизы в Клубе
    Время раздачи: с 18: 00 до 23: 00 (до появления первых 3-5 скачавших)

    NGW: Рыбалка с Майком Иаконелли. Самая быстрая рыба в Майами / Fish My City With Mike Iaconelli. The fastest fish in Miami (2018) HDTV [H.264 / 1080i-LQ] торрент скачать бесплатно
    Рейтинг →
     (голосов: 1, оценка 5/5, голосовать можно 1 раз )

    Другие торренты по теме:

  • NGW: Рыбалка с Майком Иаконелли. Рыбалка в городе Остине / Fish My City With Mike Iaconelli (2018) HDTV [H.264 / 1080i-LQ]
  • NGW: Рыбалка с Майком Иаконелли. Гиганты из Тайпея / Fish My City With Mike Iaconelli. Giants of Taipei (2018) HDTV [H.264 / 1080i-LQ]
  • NGW: Рыбалка с Майком Иаконелли. Через пруд / Fish My City With Mike Iaconelli. Across the pond (2018) HDTV [H.264 / 1080i-LQ]
  • NGW: Рыбалка с Майком Иаконелли. Крючок в Гудзон / Fish My City With Mike Iaconelli. Hookson Hook (2018) HDTV [H.264 / 1080i-LQ]


    • Комментарии (0):

      Информация

      Информация

        Посетители, находящиеся в группе Гости, не могут оставлять комментарии в данной новости.

        ↓ Меню




        ↓ Опрос

        Вы добавили сайт в закладки?
        Да
        Нет


        Популярное