.
Авторизация | Регистрация
bitok.xyz
» » Индия: По следам тигра / India: On The Trail Of The Tiger (2014) WEB-DLRip торрент скачать бесплатно


    Индия: По следам тигра / India: On The Trail Of The Tiger (2014) WEB-DLRip торрент скачать бесплатно

    Дата: 1-06-2019, 05:00 | .torrent скачали: 0

    Индия: По следам тигра / India: On The Trail Of The Tiger (2014) WEB-DLRipПроизводство: Германия, New KSM
    Жанр: Документальный, природа, флора, фауна
    Режиссер: Норберт Вандер

    Описание

    Масштабный и зрелищный документальный фильм немецкого режиссера Норберта Вандера, рассказывающий об одном из самых опасных и в то же время самых уязвимых животных на планете. Речь, конечно же, пойдет о величественном бенгальском тигре, который является самым большим представителем семейства кошачьих. Индия, национальный парк Канха. Здесь испокон веков обитают мощные и красивые бенгальские тигры, которые царствуют в джунглях и являются их самыми опасными хищниками. Индийцы очень почитают это животное и верят, что душа махараджи возвращается после смерти на землю в виде тигра. Однако, несмотря на такую легенду, браконьеры безжалостно истребляли этих зверей вплоть до 1955 года, когда тигры были занесены в Красную книгу. Тем не менее, охота на них все равно продолжается, в основном, из-за бесценной шкуры. Также тигры вымирают из-за постоянной вырубки лесов и сокращения их территории. Сможет ли местное население найти разумный баланс между экологией и экономикой, и удастся ли таким образом спасти этих прекрасных животных?
    Релиз от: Generalfilm
    Продолжительность: 00: 50: 20
    Качество видео: WEB-DLRip
    Перевод: Одноголосый закадровый, профессиональный
    Субтитры: отсутствуют
    Видео: XviD, 720x400, ~1327 Kbps
    Аудио: AC3, 2 ch, 192 Kbps
    Общее
    Полное имя : F: КИНОPo.sledam.tigra.2014.XviD.2014.WEB-DLRip.Generalfilm.avi
    Формат : AVI
    Формат/Информация : Audio Video Interleave
    Размер файла : 550 Мбайт
    Продолжительность : 50 м. 20 с.
    Общий поток : 1529 Кбит/сек
    Программа кодирования : VirtualDubMod 1.5.10.3 |www.virtualdub-fr.org|| (build 2550/release)
    Библиотека кодирования : VirtualDubMod build 2550/release
    Видео
    Идентификатор : 0
    Формат : MPEG-4 Visual
    Профиль формата : Advanced Simple@L5
    Настройки формата : BVOP1
    Параметр BVOP формата : 1
    Параметр QPel формата : Нет
    Параметр GMC формата : Без точки перехода
    Параметр матрицы формата : Default (MPEG)
    Идентификатор кодека : XVID
    Идентификатор кодека/Подсказка : XviD
    Продолжительность : 50 м. 20 с.
    Битрейт : 1327 Кбит/сек
    Ширина : 720 пикселей
    Высота : 400 пикселей
    Соотношение сторон : 16: 9
    Частота кадров : 25, 000 кадров/сек
    Цветовое пространство : YUV
    Субдискретизация насыщенности : 4: 2: 0
    Битовая глубина : 8 бит
    Тип развёртки : Прогрессивная
    Метод сжатия : С потерями
    Бит/(Пиксели*Кадры) : 0.184
    Размер потока : 478 Мбайт (87%)
    Библиотека кодирования : XviD 64
    Аудио
    Идентификатор : 1
    Формат : AC-3
    Формат/Информация : Audio Coding 3
    Коммерческое название : Dolby Digital
    Идентификатор кодека : 2000
    Продолжительность : 50 м. 20 с.
    Вид битрейта : Постоянный
    Битрейт : 192 Кбит/сек
    Каналы : 2 канала
    ChannelLayout : L R
    Частота : 48, 0 КГц
    Частота кадров : 31, 250 кадров/сек (1536 SPF)
    Битовая глубина : 16 бит
    Метод сжатия : С потерями
    Размер потока : 69, 1 Мбайт (13%)
    Выравнивание : Разделение по промежуткам
    Продолжительность промежутка : 40 мс. (1, 00 видеокадр)
    Время предзагрузки промежутка : 500 мс.
    ServiceKind/String : Complete Main

    Скриншоты для ознакомления



    Все одноименные релизы в Клубе
    Время раздачи: с 18: 00 до 23: 00 (до появления первых 3-5 скачавших)

    Индия: По следам тигра/India: On The Trail Of The Tiger (2014) WEB-DLRip
    Рейтинг →
     (голосов: 1, оценка 3/5, голосовать можно 1 раз )

    Другие торренты по теме:

  • Мёртвые 2: Индия / The Dead 2: India (2013) BDRip [720p] [EN]
  • Мёртвые 2: Индия / The Dead 2: India (2013) BDRip [1080p] [EN]
  • Р. Пальм Датт | Индия сегодня (1948) [DJVU] скачать через торрент бесплатно
  • Assassin’s Creed Chronicles: India / Assassins Creed Chronicles: Индия (2016) [Ru / Multi] (1.0) Repack Samael
  • Б. И. Клюев, А. Д. Литман (отв. ред.) | Индия: религия в политике и общественном сознании (1991) [DJVU]
  • Assassin’s Creed Chronicles: India / Assassins Creed Chronicles: Индия (2016) [Ru / Multi] (1.0) Repack R.G. Механики
  • Ю. В. Ключников (ред.) | Конституции буржуазных стран. Британская империя, Доминионы, Индия, Филиппины [IV том] (1936) [PDF]
  • Assassin’s Creed Chronicles: India / Assassins Creed Chronicles: Индия (2016) [Ru / Multi] (1.0.10897.0) Repack R.G. Catalyst


    • Комментарии (0):

      Информация

      Информация

        Посетители, находящиеся в группе Гости, не могут оставлять комментарии в данной новости.

        ↓ Меню




        ↓ Опрос

        Вы добавили сайт в закладки?
        Да
        Нет


        Популярное

        Михаил Задорнов. Лучшее - сборник лучших эстрадных номеров Михаила Задорнова за 30 лет (1984-2014) WEBRip скачать через торрент бесплатно

        (скачиваний: 1719)
        СССР. Знак качества с Гариком Сукачевым (2019) SATRip (1 серия из ) (Обновляемая)

        (скачиваний: 115)
        Счастливые люди: Другая жизнь. Алтай (2017) WEBRip [VP9 / 1080p] (cерии 1-4)

        (скачиваний: 115)
        Битва экстрасенсов (2011-2016) (сезоны 11-16 (все выпуски)+спецвыпуски) SATRip

        (скачиваний: 88)
        На ножах (2018-2019) WEBRip [H.264 / 720p-LQ] (сезон 4, выпуски 1-15 из ) (обновляемая)

        (скачиваний: 66)
        Элвис Пресли: Искатель / Elvis Presley: The Searcher (2018) HDTV [H.264 / 1080i-LQ] (серия 1 из 2) (Обновляемая)

        (скачиваний: 65)
        Дмитрий Несветов | Кончина СССР. Что это было (2016) [FB2]

        (скачиваний: 61)
        Квартирник НТВ у Маргулиса. Новогодний выпуск. Незваные гости (31.12.2018) SATRip

        (скачиваний: 59)
        Сборник выпусков киножурнала "Фитиль" (1960-2004) TVRip (серий 854)

        (скачиваний: 59)
        Русские евреи (2016-2017) HDTVRip [H.264 / 1080p-LQ]

        (скачиваний: 55)