ВАЖНО! Сайт скоро заблокируют! Подписывайся на наш канал в Telegram https://t.me/torrentok и получи доступ к торрентам без ограничений!
.
Авторизация | Регистрация
bitok.xyz
Торрент скачать бесплатно Передачи торрент скачать На ножах (2018-2019) WEBRip [H.264 / 720p-LQ] (сезон 4, выпуски 1-15 из ) (обновляемая) торрент скачать бесплатно


    На ножах (2018-2019) WEBRip [H.264 / 720p-LQ] (сезон 4, выпуски 1-15 из ) (обновляемая) торрент скачать бесплатно

    Дата: 29-09-2019, 05:00 | .torrent скачали: 389

    На ножах (2018-2019) WEBRip [H.264 / 720p-LQ] (сезон 4, выпуски 1-15 из ) (обновляемая)Телекомпания: Пятница
    Жанр: ТВ-шоу, Телепередача
    Ведущие: Константин Ивлев

    Описание

    Мы проверили сотни ресторанов по всей стране. И не зря! Многие из тех, кто откровенно не дотягивал или спотыкался в погоне за высокими стандартами сервиса, встали на путь исправления. Они обратились за помощью к легендарному шефу, гуру ресторанного бизнеса, добрейшему и терпеливейшему Мастеру своего дела Константину Ивлеву! Терпеливый мастер приедет и научит, как дальше жить, готовить и обслуживать посетителей, чтобы стать приличным и прибыльным заведением. Только выдержат ли новиспеченные ученики эту школу? Ведь Терпение мастера не безгранично! Обладатель тяжелой руки и адепт шоковой терапии рубит с плеча и делает фарш из всех, кто отказывается понимать с первого раза. Но результат того стоит! Встань на путь исправления! Но бойся гнева Терпеливого Мастера!
    Продолжительность: ~00: 49: 00 выпуск
    Качество видео: WEBRip
    Видео: AVC/H.264, 1280х720, ~3000 Kbps
    Аудио: AC3, 2 ch, 192 Kbps
    General
    Unique ID : 262593112416652799003882048849402866880 (0xC58D9805DA54EB6F66483EA32EBF2CC0)
    Complete name : F: ТЕЛЕПЕРЕДАЧИНА НОЖАХNaNozah.S04.2019.WEB-DLRip.720pNaNozah.S04.Ep01.2019.WEB-DLRip.720p.mkv
    Format : Matroska
    Format version : Version 4
    File size : 1.10 GiB
    Duration : 49 min 16 s
    Overall bit rate : 3 206 kb/s
    Writing application : Lavf56.40.101
    Writing library : Lavf56.40.101
    Video
    ID : 1
    Format : AVC
    Format/Info : Advanced Video Codec
    Format profile : High@L4.1
    Format settings : CABAC/4 Ref Frames
    Format settings, CABAC : Yes
    Format settings, Reference : 4 frames
    Codec ID : V_MPEG4/ISO/AVC
    Duration : 49 min 16 s
    Bit rate : 3 000 kb/s
    Width : 1 280 pixels
    Height : 720 pixels
    Display aspect ratio : 16: 9
    Frame rate mode : Constant
    Frame rate : 25.000 FPS
    Color space : YUV
    Chroma subsampling : 4: 2: 0
    Bit depth : 8 bits
    Scan type : Progressive
    Bits/(Pixel*Frame) : 0.130
    Stream size : 1.02 GiB (92%)
    Writing library : x264 core 148 r2643 5c65704
    Encoding settings : cabac=1/ref=4/deblock=1: 0: 0/analyse=0x3: 0x113/me=umh/subme=8/psy=1/psy_rd=1.00: 0.00/mixed_ref=1/me_range=24/chroma_me=1/trellis=1/8x8dct=1/cqm=0/deadzone=21, 11/fast_pskip=1/chroma_qp_offset=-2/threads=22/lookahead_threads=3/sliced_threads=0/nr=0/decimate=1/interlaced=0/bluray_compat=0/constrained_intra=0/bframes=3/b_pyramid=0/b_adapt=2/b_bias=0/direct=3/weightb=1/open_gop=0/weightp=2/keyint=250/keyint_min=25/scenecut=40/intra_refresh=0/rc_lookahead=40/rc=abr/mbtree=1/bitrate=3000/ratetol=1.0/qcomp=0.60/qpmin=10/qpmax=51/qpstep=4/ip_ratio=1.41/aq=1: 1.00
    Default : Yes
    Forced : No
    Audio
    ID : 2
    Format : AC-3
    Format/Info : Audio Coding 3
    Commercial name : Dolby Digital
    Codec ID : A_AC3
    Duration : 49 min 16 s
    Bit rate mode : Constant
    Bit rate : 192 kb/s
    Channel(s) : 2 channels
    Channel layout : L R
    Sampling rate : 48.0 kHz
    Frame rate : 31.250 FPS (1536 SPF)
    Bit depth : 16 bits
    Compression mode : Lossy
    Stream size : 67.7 MiB (6%)
    Writing library : Lavc56.60.100 ac3
    Service kind : Complete Main
    Default : Yes
    Forced : No

    На ножах (2018-2019) WEBRip [H.264 / 720p-LQ] (сезон 4, выпуски 1-15 из ) (обновляемая) торрент скачать бесплатно
    Рейтинг →
     (голосов: 1, оценка 5/5, голосовать можно 1 раз )

    Другие торренты по теме:

  • На ножах (2016-2017) WEBRip (сезон 2, выпуски 1-10 из ) [обновляемая]


    • Комментарии (0):

      Информация

      Информация

        Посетители, находящиеся в группе Гости, не могут оставлять комментарии в данной новости.

        ↓ Меню




        Популярное

        Максим Малявин | Записки психиатра. Лучшее, или Блог добрых психиатров (2016) [FB2]

        (скачиваний: 4)
        Джон Максвелл | Прокачай свое лидерство (2016) [FB2]

        (скачиваний: 4)
        6 Кадров (2006-2015) SATRip / WEBRip (сезоны 1-8, выпуски 1-321 из) + Дополнения

        (скачиваний: 3)
        Дикие белые львицы / White Lions - Born Wild (2012) HDTVRip (2 серии) [H.264 / 720p] скачать через торрент бесплатно

        (скачиваний: 3)
        Сергей Тармашев | Что посеешь (2016) [FB2]

        (скачиваний: 3)
        Всё об Америке / Discoveries... America (2003-2007) HDTVRip (Серии 32 из 32)

        (скачиваний: 3)
        Октябрина Ганичкина, Александр Ганичкин | Золотая энциклопедия. Огород на 6 сотках. Секреты для ленивых дачников от Октябрины Ганичкиной (2017) [FB2]

        (скачиваний: 3)
        Ху из мистер Путин / Who is Mr. Putin (2015) WEBRip [H.264 / 720p-LQ] скачать через торрент бесплатно

        (скачиваний: 2)
        Наталья Сердцева | Теория относительности Эйнштейна за 1 час (2017) [FB2, RTF]

        (скачиваний: 2)
        Последние 24 часа (2019-2020) WEB-DL [H.264 / 1080p-LQ] (выпуски 1-5 из ) (обновляемая)

        (скачиваний: 2)