.
Авторизация | Регистрация
bitok.xyz
» » Адская кухня с Константином Ивлевым (2017) WEB-DLRip [H.264 / 720p-LQ] (сезон 1, выпуски 1-15 из 15 + Спецвыпуск) торрент скачать бесплатно


    Адская кухня с Константином Ивлевым (2017) WEB-DLRip [H.264 / 720p-LQ] (сезон 1, выпуски 1-15 из 15 + Спецвыпуск) торрент скачать бесплатно

    Дата: 30-09-2019, 05:00 | .torrent скачали: 267

    Адская кухня с Константином Ивлевым (2017) WEB-DLRip [H.264 / 720p-LQ] (сезон 1, выпуски 1-15 из 15 + Спецвыпуск)Телекомпания: Пятница
    Жанр: ТВ-шоу, Кулинарный, Телепередача
    Ведущие: Константин Ивлев, Елена Летучая, Артём Королёв

    Описание

    Адская кухня — российская адаптация американского кулинарного шоу Hell\'s Kitchen. Работа на кухне Константина Ивлева — серьёзное испытание, но тот, кто сможет его пройти, уверенно сможет называть себя сильнейшим поваром страны. Он станет настоящим шеф-поваром нового ресторана Константина Ивлева. Главный приз шоу — 1 миллион рублей.
    Продолжительность: ~ 01: 36: 00 выпуск
    Качество видео: WEB-DLRip
    Видео: AVC/H.264, 1280х720, ~3573 Kbps
    Аудио: AC3, 2 ch, 192 Kbps
    General
    Unique ID : 198661319683469753995534854171800986670 (0x9574C747A57D5D77849F8E3F3021642E)
    Complete name : F: ТЕЛЕПЕРЕДАЧИАДСКАЯ КУХНЯAdskaya.kyhnya.S01.2017.WEB-DLRip (720p)Adskaya.kyhnya.s01e01.2017.WEB-DLRip (720p).mkv
    Format : Matroska
    Format version : Version 4
    File size : 2.56 GiB
    Duration : 1 h 36 min
    Overall bit rate : 3 780 kb/s
    Writing application : Lavf56.40.101
    Writing library : Lavf56.40.101
    Video
    ID : 1
    Format : AVC
    Format/Info : Advanced Video Codec
    Format profile : High@L4.1
    Format settings : CABAC/4 Ref Frames
    Format settings, CABAC : Yes
    Format settings, Reference : 4 frames
    Codec ID : V_MPEG4/ISO/AVC
    Duration : 1 h 36 min
    Bit rate : 3 573 kb/s
    Width : 1 280 pixels
    Height : 720 pixels
    Display aspect ratio : 16: 9
    Frame rate mode : Constant
    Frame rate : 29.970 (29970/1000) FPS
    Color space : YUV
    Chroma subsampling : 4: 2: 0
    Bit depth : 8 bits
    Scan type : Progressive
    Bits/(Pixel*Frame) : 0.129
    Stream size : 2.38 GiB (93%)
    Writing library : x264 core 148 r2643 5c65704
    Encoding settings : cabac=1/ref=4/deblock=1: 0: 0/analyse=0x3: 0x113/me=umh/subme=8/psy=1/psy_rd=1.00: 0.00/mixed_ref=1/me_range=24/chroma_me=1/trellis=1/8x8dct=1/cqm=0/deadzone=21, 11/fast_pskip=1/chroma_qp_offset=-2/threads=22/lookahead_threads=3/sliced_threads=0/nr=0/decimate=1/interlaced=0/bluray_compat=0/constrained_intra=0/bframes=3/b_pyramid=0/b_adapt=2/b_bias=0/direct=3/weightb=1/open_gop=0/weightp=2/keyint=250/keyint_min=25/scenecut=40/intra_refresh=0/rc_lookahead=40/rc=abr/mbtree=1/bitrate=3573/ratetol=1.0/qcomp=0.60/qpmin=10/qpmax=51/qpstep=4/ip_ratio=1.41/aq=1: 1.00
    Default : Yes
    Forced : No
    Audio
    ID : 2
    Format : AC-3
    Format/Info : Audio Coding 3
    Commercial name : Dolby Digital
    Codec ID : A_AC3
    Duration : 1 h 36 min
    Bit rate mode : Constant
    Bit rate : 192 kb/s
    Channel(s) : 2 channels
    Channel layout : L R
    Sampling rate : 48.0 kHz
    Frame rate : 31.250 FPS (1536 SPF)
    Bit depth : 16 bits
    Compression mode : Lossy
    Stream size : 133 MiB (5%)
    Writing library : Lavc56.60.100 ac3
    Service kind : Complete Main
    Default : Yes
    Forced : No

    Скриншоты для ознакомления



    Все одноименные релизы в Клубе
    Время раздачи: 24/7 (круглосуточно) (до появления первых 3-5 скачавших)

    Адская кухня с Константином Ивлевым (2017) WEB-DLRip [H.264/720p-LQ] (сезон 1, выпуски 1-15 из 15 + Спецвыпуск)
    Рейтинг →
     (голосов: 1, оценка 4/5, голосовать можно 1 раз )

    Другие торренты по теме:

  • Адская кухня / Paradise Alley (1978) BDRip [H.264]
  • Адская кухня / The Kitchen (2019) HDRip [MVO] [AD]
  • Адская кухня / The Kitchen (2019) BDRip [H.264 / 720p-LQ] [MVO] [AD]
  • Адская кухня / The Kitchen (2019) BDRip [H.264 / 1080p] [PR]
  • Адская кухня / The Kitchen (2019) BDRip
  • Адская кухня / The Kitchen (2019) BDRemux [H.264 / 1080p]
  • Адская кухня / The Kitchen (2019) HDRip [H.265] [10-bit]
  • Адская кухня с Константином Ивлевым (2018) WEB-DLRip [H.264 / 720p-LQ] (сезон 2, выпуски 1-17 из 17) [PR]


    • Комментарии (0):

      Информация

      Информация

        Посетители, находящиеся в группе Гости, не могут оставлять комментарии в данной новости.

        ↓ Меню




        ↓ Опрос

        Вы добавили сайт в закладки?
        Да
        Нет


        Популярное

        Михаил Задорнов. Лучшее - сборник лучших эстрадных номеров Михаила Задорнова за 30 лет (1984-2014) WEBRip скачать через торрент бесплатно

        (скачиваний: 1721)
        СССР. Знак качества с Гариком Сукачевым (2019) SATRip (1 серия из ) (Обновляемая)

        (скачиваний: 116)
        Счастливые люди: Другая жизнь. Алтай (2017) WEBRip [VP9 / 1080p] (cерии 1-4)

        (скачиваний: 115)
        Битва экстрасенсов (2011-2016) (сезоны 11-16 (все выпуски)+спецвыпуски) SATRip

        (скачиваний: 95)
        На ножах (2018-2019) WEBRip [H.264 / 720p-LQ] (сезон 4, выпуски 1-15 из ) (обновляемая)

        (скачиваний: 72)
        Квартирник НТВ у Маргулиса. Новогодний выпуск. Незваные гости (31.12.2018) SATRip

        (скачиваний: 65)
        Элвис Пресли: Искатель / Elvis Presley: The Searcher (2018) HDTV [H.264 / 1080i-LQ] (серия 1 из 2) (Обновляемая)

        (скачиваний: 65)
        Дмитрий Несветов | Кончина СССР. Что это было (2016) [FB2]

        (скачиваний: 61)
        Сборник выпусков киножурнала "Фитиль" (1960-2004) TVRip (серий 854)

        (скачиваний: 59)
        Русские евреи (2016-2017) HDTVRip [H.264 / 1080p-LQ]

        (скачиваний: 56)