.
Авторизация | Регистрация
bitok.xyz
» » Семь миров, одна планета / Seven Worlds, One Planet (2019) HDTVRip [H.265 / 1080p-LQ] [10-bit] [EN / EN, RU Sub] (сезон 1, серии 1 из 7) (Обновляемая) торрент скачать бесплатно


    Семь миров, одна планета / Seven Worlds, One Planet (2019) HDTVRip [H.265 / 1080p-LQ] [10-bit] [EN / EN, RU Sub] (сезон 1, серии 1 из 7) (Обновляемая) торрент скачать бесплатно

    Дата: 11-11-2019, 05:00 | .torrent скачали: 22

    Семь миров, одна планета / Seven Worlds, One Planet (2019) HDTVRip [H.265 / 1080p-LQ] [10-bit] [EN / EN, RU Sub] (сезон 1, серии 1 из 7) (Обновляемая)Производство: Великобритания, BBC Studios
    Жанр: Документальный, природа, флора, фауна
    Режиссер: Фреди Девас
    Участники: Дэвид Аттенборо

    Описание

    Семь миров, Одна планета – это новейшая достопримечательность естествознания от отдела естествознания студии BBC, рассказанная сэром Дэвидом Аттенборо. Серия продемонстрирует богатое разнообразие семи континентов Земли и то, что делает каждый из них уникальным. Миллионы лет назад невероятные силы разорвали земную кору, создав наши семь континентов – каждый со своим особенным климатом, своей особой местностью и своей уникальной животной жизнью. От красочного рая Южной Америки до палящей жары Африки, Семь миров, Одна планета демонстрирует истинный характер каждого континента по очереди и показывает, как на них сформировалась вся жизнь.

    Продолжительность: серии x ~00: 59: 04
    Качество видео: HDTVRip
    Перевод: Отсутствует
    Субтитры: Английские, русские (отдельным файлом)
    Видео: HEVC/H.265, 1920x1080, ~2776 Kbps
    Аудио: AAC, 6 ch, 160 Kbps
    Общее
    Уникальный идентификатор : 123465218475790543762405000448944392081 (0x5CE289402975CFD6FF6EFCDC783C4791)
    Полное имя : F: КИНОSeven Worlds One PlanetBBC.Seven.Worlds.One.Planet.1of7.Antarctica.1080p.HDTV.x265.AAC.MVGroup.org.mkv
    Формат : Matroska
    Версия формата : Version 4
    Размер файла : 1, 21 Гбайт
    Продолжительность : 59 м. 4 с.
    Общий поток : 2938 Кбит/сек
    Название фильма : Seven Worlds, One Planet MVGroup
    Дата кодирования : UTC 2019-10-28 18: 51: 05
    Программа кодирования : mkvmerge v38.0.0 (\'The Silent Type\') 64-bit
    Библиотека кодирования : libebml v1.3.9 + libmatroska v1.5.2
    Видео
    Идентификатор : 1
    Формат : HEVC
    Формат/Информация : High Efficiency Video Coding
    Профиль формата : Main 10@L4@Main
    Идентификатор кодека : V_MPEGH/ISO/HEVC
    Продолжительность : 59 м. 4 с.
    Битрейт : 2776 Кбит/сек
    Ширина : 1920 пикселей
    Высота : 1080 пикселей
    Соотношение сторон : 16: 9
    Режим частоты кадров : Постоянный
    Частота кадров : 25, 000 кадров/сек
    Цветовое пространство : YUV
    Субдискретизация насыщенности : 4: 2: 0
    Битовая глубина : 10 бит
    Бит/(Пиксели*Кадры) : 0.054
    Размер потока : 1, 15 Гбайт (94%)
    Библиотека кодирования : x265 3.2+9-971180b100f8: WindowsMSVC 192364 bit 10bit
    Настройки программы : cpuid=1111039/frame-threads=3/numa-pools=12/wpp/no-pmode/no-pme/no-psnr/no-ssim/log-level=2/input-csp=1/input-res=1920x1080/interlace=0/total-frames=88600/level-idc=0/high-tier=1/uhd-bd=0/ref=3/no-allow-non-conformance/no-repeat-t_heads/annexb/no-aud/no-hrd/info/hash=0/no-temporal-layers/no-open-gop/min-keyint=25/keyint=250/gop-lookahead=12/bframes=6/b-adapt=2/b-pyramid/bframe-bias=0/rc-lookahead=20/lookahead-slices=6/scenecut=40/radl=0/no-splice/no-intra-refresh/ctu=64/min-cu-size=8/no-rect/no-amp/max-tu-size=32/tu-inter-depth=1/tu-intra-depth=1/limit-tu=0/rdoq-level=0/dynamic-rd=0.00/no-ssim-rd/signhide/no-tskip/nr-intra=0/nr-inter=0/no-constrained-intra/strong-intra-smoothing/max-merge=3/limit-refs=1/no-limit-modes/me=2/subme=2/merange=57/temporal-mvp/no-frame-dup/hme/Level/weightp/weightb/no-analyze-src-pics/deblock=0: 0/sao/no-sao-non-deblock/rd=3/selective-sao=4/early-skip/rskip/no-fast-intra/no-tskip-fast/no-cu-lossless/b-intra/no-splitrd-skip/rdpenalty=0/psy-rd=2.00/psy-rdoq=0.00/no-rd-refine/no-lossless/cbqpoffs=0/crqpoffs=0/rc=crf/crf=22.0/qcomp=0.60/qpstep=4/stats-write=0/stats-read=0/ipratio=1.40/pbratio=1.30/aq-mode=4/aq-strength=1.00/cutree/zone-count=0/no-strict-cbr/qg-size=32/no-rc-grain/qpmax=69/qpmin=0/no-const-vbv/sar=0/overscan=0/videoformat=5/range=0/colorprim=1/transfer=1/colormatrix=1/chromaloc=0/display-window=0/cll=0, 0/min-luma=0/max-luma=1023/log2-max-poc-lsb=8/vui-timing-info/vui-hrd-info/slices=1/no-opt-qp-pps/no-opt-ref-list-length-pps/no-multi-pass-opt-rps/scenecut-bias=0.05/no-opt-cu-delta-qp/no-aq-motion/no-hdr/no-hdr-opt/no-dhdr10-opt/no-idr-recovery-sei/analysis-reuse-level=5/scale-factor=0/refine-intra=0/refine-inter=0/refine-mv=1/refine-ctu-distortion=0/no-limit-sao/ctu-info=0/no-lowpass-dct/refine-analysis-type=0/copy-pic=1/max-ausize-factor=1.0/no-dynamic-refine/no-single-sei/no-hevc-aq/no-svt/no-field/qp-adaptation-range=1.00
    Язык : English
    Default : Да
    Forced : Нет
    Цветовой диапазон : Limited
    Основные цвета : BT.709
    Характеристики трансфера : BT.709
    Коэффициенты матрицы : BT.709
    Аудио
    Идентификатор : 2
    Формат : AAC LC SBR
    Формат/Информация : Advanced Audio Codec Low Complexity with Spectral Band Replication
    Коммерческое название : HE-AAC
    Настройки формата : Explicit
    Идентификатор кодека : A_AAC-2
    Продолжительность : 59 м. 3 с.
    Битрейт : 160 Кбит/сек
    Каналы : 6 каналов
    ChannelLayout : C L R Ls Rs LFE
    Частота : 48, 0 КГц
    Частота кадров : 23, 438 кадра/сек (2048 SPF)
    Метод сжатия : С потерями
    Размер потока : 67, 6 Мбайт (5%)
    Язык : English
    Default : Да
    Forced : Нет
    Текст
    Идентификатор : 3
    Формат : UTF-8
    Идентификатор кодека : S_TEXT/UTF8
    Идентификатор кодека/Информация : UTF-8 Plain Text
    Продолжительность : 58 м. 11 с.
    Битрейт : 40 бит/сек
    ElementCount : 486
    Размер потока : 17, 5 Кбайт (0%)
    Язык : English
    Default : Нет
    Forced : Нет


    Семь миров, одна планета/Seven Worlds, One Planet (2019) HDTVRip [H.265/1080p-LQ] [10-bit] [EN/EN, RU Sub] (сезон 1, серии 1 из 7) (Обновляемая)
    Рейтинг →
     (голосов: 1, оценка 3/5, голосовать можно 1 раз )

    Другие торренты по теме:

  • Семь миров, одна планета / Seven Worlds, One Planet (2019) WEB-DL [H.264 / 1080p] (сезон 1, серии 1-3 из 7) [MVO] (Обновляемая)
  • Семь миров, одна планета / Seven Worlds, One Planet (2019) UHD WEB-DL [H.265 / 2160p] [4K, HDR, 10-bit] [MVO] (сезон 1, серии 1-3 из 7) (Обновляемая)
  • Семь миров, одна планета / Seven Worlds, One Planet (2019) BDRemux [H.264 / 1080i] (сезон 1, серии 7 из 7) [MVO]
  • Семь миров, одна планета / Seven Worlds, One Planet (2019) UHD BDRemux [H.265 / 2160p] [4K, HDR, 10-bit] (сезон 1, серии 1-7 из 7) [AVO]


    • Комментарии (0):

      Информация

      Информация

        Посетители, находящиеся в группе Гости, не могут оставлять комментарии в данной новости.

        ↓ Меню




        ↓ Опрос

        Вы добавили сайт в закладки?
        Да
        Нет


        Популярное

        Михаил Задорнов. Лучшее - сборник лучших эстрадных номеров Михаила Задорнова за 30 лет (1984-2014) WEBRip скачать через торрент бесплатно

        (скачиваний: 1747)
        Битва экстрасенсов (2011-2016) (сезоны 11-16 (все выпуски)+спецвыпуски) SATRip

        (скачиваний: 155)
        Счастливые люди: Другая жизнь. Алтай (2017) WEBRip [VP9 / 1080p] (cерии 1-4)

        (скачиваний: 137)
        СССР. Знак качества с Гариком Сукачевым (2019) SATRip (1 серия из ) (Обновляемая)

        (скачиваний: 129)
        На ножах (2018-2019) WEBRip [H.264 / 720p-LQ] (сезон 4, выпуски 1-15 из ) (обновляемая)

        (скачиваний: 119)
        Великая война (2010-2012) WEBRip [H.264 / 720p-LQ] (серии 1-18 из 18)

        (скачиваний: 80)
        Сборник выпусков киножурнала "Фитиль" (1960-2004) TVRip (серий 854)

        (скачиваний: 75)
        Элвис Пресли: Искатель / Elvis Presley: The Searcher (2018) HDTV [H.264 / 1080i-LQ] (серия 1 из 2) (Обновляемая)

        (скачиваний: 68)
        Квартирник НТВ у Маргулиса. Новогодний выпуск. Незваные гости (31.12.2018) SATRip

        (скачиваний: 67)
        Русские евреи (2016-2017) HDTVRip [H.264 / 1080p-LQ]

        (скачиваний: 66)