.
Авторизация | Регистрация
bitok.xyz
» » Семь миров, одна планета / Seven Worlds, One Planet (2019) WEB-DL [H.264 / 1080p] (сезон 1, серии 1-3 из 7) [MVO] (Обновляемая) торрент скачать бесплатно


    Семь миров, одна планета / Seven Worlds, One Planet (2019) WEB-DL [H.264 / 1080p] (сезон 1, серии 1-3 из 7) [MVO] (Обновляемая) торрент скачать бесплатно

    Дата: 20-11-2019, 05:00 | .torrent скачали: 2

    Семь миров, одна планета / Seven Worlds, One Planet (2019) WEB-DL [H.264 / 1080p] (сезон 1, серии 1-3 из 7) [MVO] (Обновляемая)Производство: Великобритания, BBC Studios
    Жанр: Документальный, природа, флора, фауна
    Режиссер: Фреди Девас
    Участники: Дэвид Аттенборо

    Описание

    Семь миров, Одна планета – это новейшая достопримечательность естествознания от отдела естествознания студии BBC, рассказанная сэром Дэвидом Аттенборо. Серия продемонстрирует богатое разнообразие семи континентов Земли и то, что делает каждый из них уникальным. Миллионы лет назад невероятные силы разорвали земную кору, создав наши семь континентов – каждый со своим особенным климатом, своей особой местностью и своей уникальной животной жизнью. От красочного рая Южной Америки до палящей жары Африки, Семь миров, Одна планета демонстрирует истинный характер каждого континента по очереди и показывает, как на них сформировалась вся жизнь.

    Релиз от: FocusStudio
    Продолжительность: серии x ~00: 57: 37
    Качество видео: WEB-DL
    Перевод: Многоголосый закадровый, любительский (FocusX)
    Субтитры: отсутствуют
    Видео: AVC/H.264, 1920x1080, ~8821 Kbps
    Аудио#1: AC3, 6 ch, 640 Kbps | Русский
    Аудио#2: AC3, 6 ch, 640 kbps | Английский
    Общее
    Уникальный идентификатор : 92031638107227896442058908590663860385 (0x453CA6158A3355F993325DB3826500A1)
    Полное имя : F: КИНОSeven.Worlds.One.Planet.S01.WEB-DL.1080p.FocusXSeven.Worlds.One.Planet.S01E02.Asia.WEB-DL.1080p.FocusX.mkv
    Формат : Matroska
    Версия формата : Version 4
    Размер файла : 4, 15 Гбайт
    Продолжительность : 57 м. 37 с.
    Режим общего битрейта : Постоянный
    Общий поток : 10, 3 Мбит/сек
    Название фильма : Seven Worlds One Planet 1x2 @ FocusX
    Дата кодирования : UTC 2019-11-13 10: 12: 42
    Программа кодирования : mkvmerge v29.0.0 (\'Like It Or Not\') 64-bit
    Библиотека кодирования : libebml v1.3.6 + libmatroska v1.4.9
    Видео
    Идентификатор : 1
    Формат : AVC
    Формат/Информация : Advanced Video Codec
    Профиль формата : High@L4
    Настройки формата : CABAC/4 Ref Frames
    Параметр CABAC формата : Да
    Параметр RefFrames формата : 4 кадра
    Идентификатор кодека : V_MPEG4/ISO/AVC
    Продолжительность : 57 м. 37 с.
    Вид битрейта : Постоянный
    Битрейт : 8821 Кбит/сек
    Номинальный битрейт : 10000 Кбит/сек
    Ширина : 1920 пикселей
    Высота : 1080 пикселей
    Соотношение сторон : 16: 9
    Режим частоты кадров : Постоянный
    Частота кадров : 25, 000 кадров/сек
    Цветовое пространство : YUV
    Субдискретизация насыщенности : 4: 2: 0
    Битовая глубина : 8 бит
    Тип развёртки : Прогрессивная
    Бит/(Пиксели*Кадры) : 0.170
    Размер потока : 3, 55 Гбайт (86%)
    Default : Да
    Forced : Нет
    Цветовой диапазон : Limited
    Основные цвета : BT.709
    Характеристики трансфера : BT.709
    Коэффициенты матрицы : BT.709
    Аудио #1
    Идентификатор : 2
    Формат : AC-3
    Формат/Информация : Audio Coding 3
    Коммерческое название : Dolby Digital
    Идентификатор кодека : A_AC3
    Продолжительность : 57 м. 37 с.
    Вид битрейта : Постоянный
    Битрейт : 640 Кбит/сек
    Каналы : 6 каналов
    ChannelLayout : L R C LFE Ls Rs
    Частота : 48, 0 КГц
    Частота кадров : 31, 250 кадров/сек (1536 SPF)
    Метод сжатия : С потерями
    Размер потока : 264 Мбайт (6%)
    Заголовок : MVO FocusX
    Язык : Russian
    ServiceKind/String : Complete Main
    Default : Да
    Forced : Нет
    Аудио #2
    Идентификатор : 3
    Формат : AC-3
    Формат/Информация : Audio Coding 3
    Коммерческое название : Dolby Digital
    Идентификатор кодека : A_AC3
    Продолжительность : 57 м. 37 с.
    Вид битрейта : Постоянный
    Битрейт : 640 Кбит/сек
    Каналы : 6 каналов
    ChannelLayout : L R C LFE Ls Rs
    Частота : 48, 0 КГц
    Частота кадров : 31, 250 кадров/сек (1536 SPF)
    Метод сжатия : С потерями
    Размер потока : 264 Мбайт (6%)
    Язык : English
    ServiceKind/String : Complete Main
    Default : Нет
    Forced : Нет


    Семь миров, одна планета/Seven Worlds, One Planet (2019) WEB-DL [H.264/1080p] (сезон 1, серии 1-3 из 7) [MVO] (Обновляемая)
    Рейтинг →
     (голосов: 1, оценка 3/5, голосовать можно 1 раз )

    Другие торренты по теме:

  • Семь миров, одна планета / Seven Worlds, One Planet (2019) HDTVRip [H.265 / 1080p-LQ] [10-bit] [EN / EN, RU Sub] (сезон 1, серии 1 из 7) (Обновляемая)
  • Семь миров, одна планета / Seven Worlds, One Planet (2019) UHD WEB-DL [H.265 / 2160p] [4K, HDR, 10-bit] [MVO] (сезон 1, серии 1-3 из 7) (Обновляемая)


    • Комментарии (0):

      Информация

      Информация

        Посетители, находящиеся в группе Гости, не могут оставлять комментарии в данной новости.

        ↓ Меню




        ↓ Опрос

        Вы добавили сайт в закладки?
        Да
        Нет


        Популярное

        Счастливые люди: Другая жизнь. Алтай (2017) WEBRip [VP9 / 1080p] (cерии 1-4)

        (скачиваний: 64)
        Сборник выпусков киножурнала "Фитиль" (1960-2004) TVRip (серий 854)

        (скачиваний: 57)
        Михаил Задорнов. Лучшее - сборник лучших эстрадных номеров Михаила Задорнова за 30 лет (1984-2014) WEBRip скачать через торрент бесплатно

        (скачиваний: 50)
        Адская кухня с Константином Ивлевым (2017) WEB-DLRip [H.264 / 720p-LQ] (сезон 1, выпуски 1-15 из 15 + Спецвыпуск)

        (скачиваний: 40)
        Нереальная история (2011-2013) SATRip [1-3 сезон: 1-60 выпуск из 60] скачать через торрент бесплатно

        (скачиваний: 37)
        Битва экстрасенсов (2015.12.26) SATRip (сезон 16, выпуски 1-15 из 15) скачать через торрент бесплатно

        (скачиваний: 36)
        Военная приёмка. От Т-50 к СУ-57 (18.11.2018) WEB-DLRip [H.264 / 1080p-LQ] (серии 1-3 из 3) [PR]

        (скачиваний: 35)
        Рыбалка в России (2011-2013) TVRip [H.264] скачать через торрент бесплатно

        (скачиваний: 31)
        Русские евреи (2016-2017) HDTVRip [H.264 / 1080p-LQ]

        (скачиваний: 28)
        Великая война (2010-2012) WEBRip [H.264 / 720p-LQ] (серии 1-18 из 18)

        (скачиваний: 23)