.
Авторизация | Регистрация
bitok.xyz
» » History channel: Вселенная / The Universe (2007) BDRemux [H.264 / 1080p] (Диск 2, сезон 1, эпизоды 6-10) торрент скачать бесплатно


    History channel: Вселенная / The Universe (2007) BDRemux [H.264 / 1080p] (Диск 2, сезон 1, эпизоды 6-10) торрент скачать бесплатно

    Дата: 20-11-2019, 05:00 | .torrent скачали: 4

    History channel: Вселенная / The Universe (2007) BDRemux [H.264 / 1080p] (Диск 2, сезон 1, эпизоды 6-10)Производство: США, Flight 33 Productions, History Channel
    Жанр: Документальный, познавательный, научно-популярный, космос
    Режиссер: Лаура Верклан, Луис Тарантино, Дэррил Рер
    Участники: Эрик Томпсон, Алекс Филиппенко, Лаура Дэнли

    Описание

    В этом сериале с помощью современной компьютерной графики и, основываясь на передовых исследованиях в области космоса, создатели фильма смогли воссоздать то, что происходит на других планетах, в других галактиках, вообразить какие формы жизни могли бы развиться в других атмосферах. Вы сможете увидеть космические бедствия, параллельные вселенные, скорость света и узнать многое другое о тайнах космоса.

    Релиз от: boba88
    Продолжительность: серии x ~00: 44: 00
    Качество видео: BDRemux
    Перевод: Двуголосый закадровый, профессиональный (Кипарис)
    Субтитры: Русские, английские
    Видео: AVC/H.264, 1920x1080, ~23, 0 Mbps
    Аудио#1: AC3, 2 ch, 192 Kbps | Русский
    Аудио#2: LPCM, 2 ch, 1536 kbps | Английский
    Общее
    Уникальный идентификатор : 218119515391636873974116180843219310802 (0xA4184A65BB3FBCCF360FD80EA3E2D8D2)
    Полное имя : F: КИНОThe Universe-2 (2007) BDRemux8. Saturn Lord of the Rings.mkv
    Формат : Matroska
    Версия формата : Version 4
    Размер файла : 7, 62 Гбайт
    Продолжительность : 44 м. 8 с.
    Режим общего битрейта : Переменный
    Общий поток : 24, 7 Мбит/сек
    Название фильма : The.Universe(2007)S01Ep08BDRemux_boba88
    Дата кодирования : UTC 2019-11-19 06: 09: 08
    Программа кодирования : mkvmerge v40.0.0 (\'Old Town Road + Pony\') 64-bit
    Библиотека кодирования : libebml v1.3.9 + libmatroska v1.5.2
    Видео
    Идентификатор : 1
    Формат : AVC
    Формат/Информация : Advanced Video Codec
    Профиль формата : High@L4.1
    Настройки формата : CABAC/4 Ref Frames
    Параметр CABAC формата : Да
    Параметр RefFrames формата : 4 кадра
    Идентификатор кодека : V_MPEG4/ISO/AVC
    Продолжительность : 44 м. 8 с.
    Вид битрейта : Переменный
    Битрейт : 23, 0 Мбит/сек
    Максимальный битрейт : 40, 0 Мбит/сек
    Ширина : 1920 пикселей
    Высота : 1080 пикселей
    Соотношение сторон : 16: 9
    Режим частоты кадров : Постоянный
    Частота кадров : 23, 976 (24000/1001) кадра/сек
    Цветовое пространство : YUV
    Субдискретизация насыщенности : 4: 2: 0
    Битовая глубина : 8 бит
    Тип развёртки : Прогрессивная
    Бит/(Пиксели*Кадры) : 0.462
    Размер потока : 7, 08 Гбайт (93%)
    Default : Да
    Forced : Нет
    Цветовой диапазон : Limited
    Основные цвета : BT.709
    Характеристики трансфера : BT.709
    Коэффициенты матрицы : BT.709
    Аудио #1
    Идентификатор : 2
    Формат : AC-3
    Формат/Информация : Audio Coding 3
    Коммерческое название : Dolby Digital
    Идентификатор кодека : A_AC3
    Продолжительность : 44 м. 8 с.
    Вид битрейта : Постоянный
    Битрейт : 192 Кбит/сек
    Каналы : 2 канала
    ChannelLayout : L R
    Частота : 48, 0 КГц
    Частота кадров : 31, 250 кадров/сек (1536 SPF)
    Метод сжатия : С потерями
    Размер потока : 60, 6 Мбайт (1%)
    Язык : Russian
    ServiceKind/String : Complete Main
    Default : Да
    Forced : Нет
    Аудио #2
    Идентификатор : 3
    Формат : PCM
    Настройки формата : Little/Signed
    Идентификатор кодека : A_PCM/INT/LIT
    Продолжительность : 44 м. 8 с.
    Вид битрейта : Постоянный
    Битрейт : 1536 Кбит/сек
    Каналы : 2 канала
    Частота : 48, 0 КГц
    Частота кадров : 200, 000 кадров/сек (240 SPF)
    Битовая глубина : 16 бит
    Размер потока : 485 Мбайт (6%)
    Язык : English
    Default : Нет
    Forced : Нет
    Текст #1
    Идентификатор : 4
    Формат : PGS
    Режим смешивания : zlib
    Идентификатор кодека : S_HDMV/PGS
    Идентификатор кодека/Информация : Picture based subtitle format used on BDs/HD-DVDs
    Продолжительность : 44 м. 1 с.
    Битрейт : 38, 1 Кбит/сек
    ElementCount : 1015
    Размер потока : 12, 0 Мбайт (0%)
    Язык : Russian
    Default : Да
    Forced : Нет
    Текст #2
    Идентификатор : 5
    Формат : PGS
    Режим смешивания : zlib
    Идентификатор кодека : S_HDMV/PGS
    Идентификатор кодека/Информация : Picture based subtitle format used on BDs/HD-DVDs
    Продолжительность : 44 м. 1 с.
    Битрейт : 42, 8 Кбит/сек
    ElementCount : 1218
    Размер потока : 13, 5 Мбайт (0%)
    Язык : English
    Default : Нет
    Forced : Нет


    History channel: Вселенная/The Universe (2007) BDRemux [H.264/1080p] (Диск 2, сезон 1, эпизоды 6-10)
    Рейтинг →
     (голосов: 1, оценка 4/5, голосовать можно 1 раз )

    Другие торренты по теме:

  • History Channel: История далекого прошлого / Deep Time History (2016) HDTVRip (1-2 серия из 3) (Обновляемая)
  • History Channel: Древние пришельцы / Ancient Aliens (2013) HDTVRip (Сезон 6, серия 17 )
  • History Channel: Древние пришельцы / Ancient Aliens (2013) HDTVRip (Сезон 6, серия 19 ) скачать через торрент бесплатно
  • History Channel: Древние пришельцы / Ancient Aliens (2013) HDTVRip (Сезон 6, серия 18 ) скачать через торрент бесплатно
  • History Channel: Древние пришельцы / Ancient Aliens (2014) HDTVRip (Сезон 7, серия 1 )
  • History Channel. Наследие кельтов / The Celtic Legacy (2011) HDTVRip [H.264 / 720p]
  • History Channel: Древние пришельцы / Ancient Aliens (2014) HDTVRip (Сезон 7, серия 5 ) скачать через торрент бесплатно
  • History Channel: Древние пришельцы / Ancient Aliens (2014) HDTVRip (Сезон 7, серия 2 )


    • Комментарии (0):

      Информация

      Информация

        Посетители, находящиеся в группе Гости, не могут оставлять комментарии в данной новости.

        ↓ Меню




        ↓ Опрос

        Вы добавили сайт в закладки?
        Да
        Нет


        Популярное

        Счастливые люди: Другая жизнь. Алтай (2017) WEBRip [VP9 / 1080p] (cерии 1-4)

        (скачиваний: 40)
        Военная приёмка. От Т-50 к СУ-57 (18.11.2018) WEB-DLRip [H.264 / 1080p-LQ] (серии 1-3 из 3) [PR]

        (скачиваний: 35)
        Михаил Задорнов. Лучшее - сборник лучших эстрадных номеров Михаила Задорнова за 30 лет (1984-2014) WEBRip скачать через торрент бесплатно

        (скачиваний: 27)
        Рыбалка в России (2011-2013) TVRip [H.264] скачать через торрент бесплатно

        (скачиваний: 27)
        Битва экстрасенсов (2015.12.26) SATRip (сезон 16, выпуски 1-15 из 15) скачать через торрент бесплатно

        (скачиваний: 26)
        Сборник выпусков киножурнала "Фитиль" (1960-2004) TVRip (серий 854)

        (скачиваний: 22)
        Нереальная история (2011-2013) SATRip [1-3 сезон: 1-60 выпуск из 60] скачать через торрент бесплатно

        (скачиваний: 22)
        Русские евреи (2016-2017) HDTVRip [H.264 / 1080p-LQ]

        (скачиваний: 22)
        Адская кухня с Константином Ивлевым (2017) WEB-DLRip [H.264 / 720p-LQ] (сезон 1, выпуски 1-15 из 15 + Спецвыпуск)

        (скачиваний: 19)
        Диалоги о рыбалке (2007) TVRip (60 выпусков)

        (скачиваний: 19)