.
Авторизация | Регистрация
bitok.xyz
» » История Венеции / Venice. The Whole Story (2015) WEB-DL [H.264 / 1080p] торрент скачать бесплатно


    История Венеции / Venice. The Whole Story (2015) WEB-DL [H.264 / 1080p] торрент скачать бесплатно

    Дата: 20-11-2019, 05:00 | .torrent скачали: 0

    История Венеции / Venice. The Whole Story (2015) WEB-DL [H.264 / 1080p]Производство: Италия, Великобритания, Германия, Millstream Films and Media, Autentic GmbH
    Жанр: Документальный, история, культура, архитектура
    Режиссер: Андреа Фогт, Пол Рассел

    Описание

    Зеркальная венецианская лагуна с её игрой света привлекала путешественников в течении многих веков. Каменные дворцы каким-то чудом вздымаются будто из каналов, перемещаться по которым можно только в лодках. Поездка в Венецию - это исполнение мечты. Но завораживающий город на воде сегодня уязвим как никогда прежде. Он рискует исчезнуть в волнах политических, финансовых и экологических бурь...
    Релиз от: DaVinci (Culture)
    Продолжительность: серии x ~00: 44: 12
    Качество видео: WEB-DL
    Перевод: Двуголосый закадровый, профессиональный
    Субтитры: Английские
    Видео: AVC/H.264, 1920x1080, ~8247 Kbps
    Аудио#1: AC3, 2 ch, 192 Kbps | Русский (Видеофильм-ТВ)
    Аудио#2: AC3, 2 ch, 192 Kbps | Русский (SDI Media)
    Аудио#3: E-AC3, 2 ch, 224 Kbps | Английский
    Общее
    Уникальный идентификатор : 184262309889720955383409834456085468707 (0x8A9FA1493E57306EA04AF982D92C9623)
    Полное имя : F: КИНОVenice.The.Whole.Story.(2015).1080p.WEB-DL.Rus.Eng-BLUEBIRDs01e02.Saving.Venice.1080p.WEB-DL.2xRus.Eng-BLUEBIRD.mkv
    Формат : Matroska
    Версия формата : Version 4
    Размер файла : 2, 73 Гбайт
    Продолжительность : 44 м. 12 с.
    Общий поток : 8858 Кбит/сек
    Дата кодирования : UTC 2019-11-11 19: 49: 06
    Программа кодирования : mkvmerge v8.0.0 (\'Til The Day That I Die\') 32bit
    Библиотека кодирования : libebml v1.3.1 + libmatroska v1.4.2
    Видео
    Идентификатор : 1
    Формат : AVC
    Формат/Информация : Advanced Video Codec
    Профиль формата : High@L4
    Настройки формата : CABAC/4 Ref Frames
    Параметр CABAC формата : Да
    Параметр RefFrames формата : 4 кадра
    Идентификатор кодека : V_MPEG4/ISO/AVC
    Продолжительность : 44 м. 11 с.
    Битрейт : 8247 Кбит/сек
    Ширина : 1920 пикселей
    Высота : 1080 пикселей
    Соотношение сторон : 16: 9
    Режим частоты кадров : Постоянный
    Частота кадров : 25, 000 кадров/сек
    Цветовое пространство : YUV
    Субдискретизация насыщенности : 4: 2: 0
    Битовая глубина : 8 бит
    Тип развёртки : Прогрессивная
    Бит/(Пиксели*Кадры) : 0.159
    Размер потока : 2, 55 Гбайт (93%)
    Заголовок : MPEG-4 AVC Video/8247 kbps/1080p/25 fps/16: 9/High Profile 4
    Язык : English
    Default : Да
    Forced : Нет
    Цветовой диапазон : Limited
    Основные цвета : BT.709
    Характеристики трансфера : BT.709
    Коэффициенты матрицы : BT.709
    Аудио #1
    Идентификатор : 2
    Формат : AC-3
    Формат/Информация : Audio Coding 3
    Коммерческое название : Dolby Digital
    Идентификатор кодека : A_AC3
    Продолжительность : 44 м. 12 с.
    Вид битрейта : Постоянный
    Битрейт : 192 Кбит/сек
    Каналы : 2 канала
    ChannelLayout : L R
    Частота : 48, 0 КГц
    Частота кадров : 31, 250 кадров/сек (1536 SPF)
    Метод сжатия : С потерями
    Размер потока : 60, 7 Мбайт (2%)
    Заголовок : rus (VideoFilm-TV)/AC3/2.0/48 kHz/192 kbps/16-bit
    Язык : Russian
    ServiceKind/String : Complete Main
    Default : Да
    Forced : Да
    Аудио #2
    Идентификатор : 3
    Формат : AC-3
    Формат/Информация : Audio Coding 3
    Коммерческое название : Dolby Digital
    Идентификатор кодека : A_AC3
    Продолжительность : 44 м. 12 с.
    Вид битрейта : Постоянный
    Битрейт : 192 Кбит/сек
    Каналы : 2 канала
    ChannelLayout : L R
    Частота : 48, 0 КГц
    Частота кадров : 31, 250 кадров/сек (1536 SPF)
    Метод сжатия : С потерями
    Размер потока : 60, 7 Мбайт (2%)
    Заголовок : rus (SDI-Media)/AC3/2.0/48 kHz/192 kbps/16-bit
    Язык : Russian
    ServiceKind/String : Complete Main
    Default : Нет
    Forced : Нет
    Аудио #3
    Идентификатор : 4
    Формат : E-AC-3
    Формат/Информация : Enhanced AC-3
    Коммерческое название : Dolby Digital Plus
    Идентификатор кодека : A_EAC3
    Продолжительность : 44 м. 12 с.
    Вид битрейта : Постоянный
    Битрейт : 224 Кбит/сек
    Каналы : 2 канала
    ChannelLayout : L R
    Частота : 48, 0 КГц
    Частота кадров : 31, 250 кадров/сек (1536 SPF)
    Метод сжатия : С потерями
    Размер потока : 70, 8 Мбайт (3%)
    Заголовок : eng/E-AC3/2.0/48 kHz/224 kbps/16-bit
    Язык : English
    ServiceKind/String : Complete Main
    Default : Нет
    Forced : Нет
    Текст
    Идентификатор : 5
    Формат : UTF-8
    Идентификатор кодека : S_TEXT/UTF8
    Идентификатор кодека/Информация : UTF-8 Plain Text
    Продолжительность : 43 м. 20 с.
    Битрейт : 90 бит/сек
    ElementCount : 711
    Размер потока : 28, 7 Кбайт (0%)
    Заголовок : eng/SRT
    Язык : English
    Default : Нет
    Forced : Нет


    История Венеции/Venice. The Whole Story (2015) WEB-DL [H.264/1080p]
    Рейтинг →
     (голосов: 1, оценка 3/5, голосовать можно 1 раз )

    Другие торренты по теме:

  • Журнал | История. Невероятные факты №11 (29) (2019) [PDF]
  • Журнал | Комсомольская правда. Литературная №17. "Дисней. Вампирина. Магическая история" (2019) [PDF]
  • Живая история. Новая версия (2009) SATRip (серии 4 из 4)
  • Мирко Мазелли | История мусора. От древних отходов до переработки пластика (2019) [PDF]
  • Журнал | История. Невероятные факты №12 (30) (2019) [PDF]
  • Л.И. Павленко и др. | История. История России. 10 класс. Углублённый уровень. Часть 2 (2013) [FB2] скачать через торрент бесплатно
  • О.В. Волобуев и др. | История. История России. 11 класс. Углублённый уровень. Часть 1 (2013) [FB2] скачать через торрент бесплатно
  • О.В. Волобуев и др. | История. Всеобщая история. 11 класс: базовый и углублённый уровни (2014) [PDF] скачать через торрент бесплатно


    • Комментарии (0):

      Информация

      Информация

        Посетители, находящиеся в группе Гости, не могут оставлять комментарии в данной новости.

        ↓ Меню




        ↓ Опрос

        Вы добавили сайт в закладки?
        Да
        Нет


        Популярное

        Счастливые люди: Другая жизнь. Алтай (2017) WEBRip [VP9 / 1080p] (cерии 1-4)

        (скачиваний: 57)
        Сборник выпусков киножурнала "Фитиль" (1960-2004) TVRip (серий 854)

        (скачиваний: 55)
        Михаил Задорнов. Лучшее - сборник лучших эстрадных номеров Михаила Задорнова за 30 лет (1984-2014) WEBRip скачать через торрент бесплатно

        (скачиваний: 43)
        Адская кухня с Константином Ивлевым (2017) WEB-DLRip [H.264 / 720p-LQ] (сезон 1, выпуски 1-15 из 15 + Спецвыпуск)

        (скачиваний: 37)
        Военная приёмка. От Т-50 к СУ-57 (18.11.2018) WEB-DLRip [H.264 / 1080p-LQ] (серии 1-3 из 3) [PR]

        (скачиваний: 35)
        Битва экстрасенсов (2015.12.26) SATRip (сезон 16, выпуски 1-15 из 15) скачать через торрент бесплатно

        (скачиваний: 32)
        Нереальная история (2011-2013) SATRip [1-3 сезон: 1-60 выпуск из 60] скачать через торрент бесплатно

        (скачиваний: 32)
        Рыбалка в России (2011-2013) TVRip [H.264] скачать через торрент бесплатно

        (скачиваний: 31)
        Русские евреи (2016-2017) HDTVRip [H.264 / 1080p-LQ]

        (скачиваний: 26)
        Великая война (2010-2012) WEBRip [H.264 / 720p-LQ] (серии 1-18 из 18)

        (скачиваний: 22)