.
Авторизация | Регистрация
bitok.xyz
» » Королевство обезьян / Monkey Kingdom (2015) BDRemux [H.264 / 1080p] торрент скачать бесплатно

    Королевство обезьян / Monkey Kingdom (2015) BDRemux [H.264 / 1080p] торрент скачать бесплатно

    Дата: 20-11-2019, 05:00 | .torrent скачали: 0

    Королевство обезьян / Monkey Kingdom (2015) BDRemux [H.264 / 1080p]Производство: США, Disney Nature
    Жанр: Документальный, природа, флора, фауна
    Режиссер: Марк Линфилд, Аластер Фовергилл

    Описание

    Документальный фильм о природе, который показывает, как новорождённая обезьянка и её мать пытаются выжить в раздираемой конкуренцией социальной иерархии Храма - действующей группировки обезьян, живущих в древних руинах в дебрях легендарных джунглей Южной Азии.

    Релиз от: Remux boba88
    Продолжительность: 00: 44: 00
    Качество видео: BDRemux
    Перевод: Дублированный
    Субтитры: Русские, английские
    Видео: AVC/H.264, 1920x1080, ~30, 7 Mbps
    Аудио#1: AC3, 6 ch, 640 Kbps | Русский
    Аудио#2: AC3, 2 ch, 320 Kbps | Английский
    Общее
    Уникальный идентификатор : 86514475581262196859725855528851318443 (0x411614F8591C6B43DDEF4A99287BA6AB)
    Полное имя : F: КИНОDISNEYNATURE.MONKEY.KINGDOM.HDCLUB.BDRemux .mkv
    Формат : Matroska
    Версия формата : Version 4
    Размер файла : 17, 9 Гбайт
    Продолжительность : 1 ч. 20 м.
    Режим общего битрейта : Переменный
    Общий поток : 31, 7 Мбит/сек
    Дата кодирования : UTC 2019-11-19 09: 42: 44
    Программа кодирования : mkvmerge v40.0.0 (\'Old Town Road + Pony\') 64-bit
    Библиотека кодирования : libebml v1.3.9 + libmatroska v1.5.2
    Видео
    Идентификатор : 1
    Формат : AVC
    Формат/Информация : Advanced Video Codec
    Профиль формата : High@L4.1
    Настройки формата : CABAC/4 Ref Frames
    Параметр CABAC формата : Да
    Параметр RefFrames формата : 4 кадра
    Идентификатор кодека : V_MPEG4/ISO/AVC
    Продолжительность : 1 ч. 20 м.
    Вид битрейта : Переменный
    Битрейт : 30, 7 Мбит/сек
    Максимальный битрейт : 32, 0 Мбит/сек
    Ширина : 1920 пикселей
    Высота : 1080 пикселей
    Соотношение сторон : 16: 9
    Режим частоты кадров : Постоянный
    Частота кадров : 23, 976 (24000/1001) кадра/сек
    Цветовое пространство : YUV
    Субдискретизация насыщенности : 4: 2: 0
    Битовая глубина : 8 бит
    Тип развёртки : Прогрессивная
    Бит/(Пиксели*Кадры) : 0.618
    Размер потока : 17, 3 Гбайт (97%)
    Default : Да
    Forced : Нет
    Аудио #1
    Идентификатор : 2
    Формат : AC-3
    Формат/Информация : Audio Coding 3
    Коммерческое название : Dolby Digital
    Идентификатор кодека : A_AC3
    Продолжительность : 1 ч. 20 м.
    Вид битрейта : Постоянный
    Битрейт : 640 Кбит/сек
    Каналы : 6 каналов
    ChannelLayout : L R C LFE Ls Rs
    Частота : 48, 0 КГц
    Частота кадров : 31, 250 кадров/сек (1536 SPF)
    Метод сжатия : С потерями
    Размер потока : 370 Мбайт (2%)
    Язык : Russian
    ServiceKind/String : Complete Main
    Default : Да
    Forced : Нет
    Аудио #2
    Идентификатор : 3
    Формат : AC-3
    Формат/Информация : Audio Coding 3
    Коммерческое название : Dolby Digital
    Идентификатор кодека : A_AC3
    Продолжительность : 1 ч. 20 м.
    Вид битрейта : Постоянный
    Битрейт : 320 Кбит/сек
    Каналы : 2 канала
    ChannelLayout : L R
    Частота : 48, 0 КГц
    Частота кадров : 31, 250 кадров/сек (1536 SPF)
    Метод сжатия : С потерями
    Размер потока : 185 Мбайт (1%)
    Язык : English
    ServiceKind/String : Complete Main
    Default : Нет
    Forced : Нет
    Текст #1
    Идентификатор : 4
    Формат : PGS
    Режим смешивания : zlib
    Идентификатор кодека : S_HDMV/PGS
    Идентификатор кодека/Информация : Picture based subtitle format used on BDs/HD-DVDs
    Продолжительность : 1 ч. 17 м.
    Битрейт : 41, 8 Кбит/сек
    ElementCount : 1122
    Размер потока : 23, 3 Мбайт (0%)
    Язык : Russian
    Default : Да
    Forced : Нет
    Текст #2
    Идентификатор : 5
    Формат : PGS
    Режим смешивания : zlib
    Идентификатор кодека : S_HDMV/PGS
    Идентификатор кодека/Информация : Picture based subtitle format used on BDs/HD-DVDs
    Продолжительность : 1 ч. 17 м.
    Битрейт : 39, 0 Кбит/сек
    ElementCount : 1184
    Размер потока : 21, 7 Мбайт (0%)
    Язык : English
    Default : Нет
    Forced : Нет

    Прямая ссылка скачивания через uTorrent


    Королевство обезьян/Monkey Kingdom (2015) BDRemux [H.264/1080p]
    Рейтинг →
     (голосов: 1, оценка 4/5, голосовать можно 1 раз )

    Другие торренты по теме:

  • Королевство обезьян / Monkey Kingdom (2015) BDRip [H.264 / 720p-LQ] скачать через торрент бесплатно
  • Королевство обезьян / Monkey Kingdom (2015) BDRip [H.264 / 1080p-LQ] скачать через торрент бесплатно
  • Королевство обезьян / Monkey Kingdom (2015) BDRip [H.264 / 1080p-LQ]
  • NGW. Королевство обезьян: Брат против брата / Kingdom Of The Apes: Brother vs. Brother (2014) HDTV [H.264 / 1080i-LQ] (Сезон 1, серия 2)


    • Комментарии (0):

      Информация

      Информация

        Посетители, находящиеся в группе Гости, не могут оставлять комментарии в данной новости.

        ↓ Меню




        ↓ Опрос

        Вы добавили сайт в закладки?
        Да
        Нет


        Популярное

        Счастливые люди: Другая жизнь. Алтай (2017) WEBRip [VP9 / 1080p] (cерии 1-4)

        (скачиваний: 57)
        Сборник выпусков киножурнала "Фитиль" (1960-2004) TVRip (серий 854)

        (скачиваний: 55)
        Михаил Задорнов. Лучшее - сборник лучших эстрадных номеров Михаила Задорнова за 30 лет (1984-2014) WEBRip скачать через торрент бесплатно

        (скачиваний: 43)
        Адская кухня с Константином Ивлевым (2017) WEB-DLRip [H.264 / 720p-LQ] (сезон 1, выпуски 1-15 из 15 + Спецвыпуск)

        (скачиваний: 37)
        Военная приёмка. От Т-50 к СУ-57 (18.11.2018) WEB-DLRip [H.264 / 1080p-LQ] (серии 1-3 из 3) [PR]

        (скачиваний: 35)
        Битва экстрасенсов (2015.12.26) SATRip (сезон 16, выпуски 1-15 из 15) скачать через торрент бесплатно

        (скачиваний: 32)
        Нереальная история (2011-2013) SATRip [1-3 сезон: 1-60 выпуск из 60] скачать через торрент бесплатно

        (скачиваний: 32)
        Рыбалка в России (2011-2013) TVRip [H.264] скачать через торрент бесплатно

        (скачиваний: 31)
        Русские евреи (2016-2017) HDTVRip [H.264 / 1080p-LQ]

        (скачиваний: 26)
        Великая война (2010-2012) WEBRip [H.264 / 720p-LQ] (серии 1-18 из 18)

        (скачиваний: 22)