.
Авторизация | Регистрация
bitok.xyz
» » Канарские острова / Die Kanarischen Inseln / The Canary Islands (2016) BDRip [H.264 / 1080p] (серии 2 из 2) торрент скачать бесплатно


    Канарские острова / Die Kanarischen Inseln / The Canary Islands (2016) BDRip [H.264 / 1080p] (серии 2 из 2) торрент скачать бесплатно

    Дата: 20-11-2019, 05:00 | .torrent скачали: 1

    Канарские острова / Die Kanarischen Inseln / The Canary Islands (2016) BDRip [H.264 / 1080p] (серии 2 из 2)Производство: Австрия, Дания, Швеция, Danmarks Radio (DR), NDR Naturfilm, ORF Enterprise
    Жанр: Документальный, природа, флора, фауна
    Режиссер: Майкл Шламбергер

    Описание

    Северо-Западная Африка, тысячи километров голой, выжженной пустыни. У этого побережья находится небольшой, удаленный архипелаг, окруженный Атлантическим океаном. Семь вулканических островов, и каждый из них – отдельный мир. Здесь теплые экваториальные течения смешиваются с холодными водами северной Атлантики. Планктон поднимается с глубины и собирается у поверхности океана. Рыбы из разных климатических зон встречаются в водах вблизи Канарских островов. Пассаты, дующие над водой, приносят жизнь на острова. Они собирают влагу, пересекая океан, и создают условия для поражающего воображение разнообразия флоры и фауны.

    Релиз от: HDReactor
    Продолжительность: 2 х ~00: 50: 11
    Качество видео: BDRip
    Перевод: Дублированный (СВ-Дубль)
    Субтитры: отсутствуют
    Видео: AVC/H.264, 1920x1080, ~9924 Kbps
    Аудио#1: AC3, 2 ch, 192 Kbps | Русский
    Аудио#2: AC3, 6 ch, 448 Kbps | Английский
    Общее
    Уникальный идентификатор : 255128821482302263697917841498994058417 (0xBFF00610FFFED524BA46F2956F4B24B1)
    Полное имя : F: КИНОThe.Canary.Islands.2016.UHDRip.1080p.HDReactor2.The.Canary.Islands.2016(World.of.the.Fire.Mountains)UHDRip.1080p.HDReactor.mkv
    Формат : Matroska
    Версия формата : Version 2
    Размер файла : 3, 78 Гбайт
    Продолжительность : 50 м. 11 с.
    Общий поток : 10, 8 Мбит/сек
    Название фильма : ~V ad~
    Дата кодирования : UTC 2019-11-18 19: 25: 30
    Программа кодирования : mkvmerge v6.5.0 (\'Isn\'t she lovely\') built on Oct 20 2013 12: 50: 05
    Библиотека кодирования : libebml v1.3.0 + libmatroska v1.4.1
    Обложка : Yes
    Attachments : cover.2.jpg
    Видео
    Идентификатор : 1
    Формат : AVC
    Формат/Информация : Advanced Video Codec
    Профиль формата : High@L4.1
    Настройки формата : CABAC/4 Ref Frames
    Параметр CABAC формата : Да
    Параметр RefFrames формата : 4 кадра
    Идентификатор кодека : V_MPEG4/ISO/AVC
    Продолжительность : 50 м. 11 с.
    Битрейт : 9924 Кбит/сек
    Ширина : 1920 пикселей
    Высота : 1080 пикселей
    Соотношение сторон : 16: 9
    Режим частоты кадров : Постоянный
    Частота кадров : 25, 000 кадров/сек
    Цветовое пространство : YUV
    Субдискретизация насыщенности : 4: 2: 0
    Битовая глубина : 8 бит
    Тип развёртки : Прогрессивная
    Бит/(Пиксели*Кадры) : 0.191
    Размер потока : 3, 48 Гбайт (92%)
    Заголовок : ~V~
    Библиотека кодирования : x264 core 158 r2988 7817004
    Настройки программы : cabac=1/ref=4/deblock=1: -3: -3/analyse=0x3: 0x133/me=umh/subme=11/psy=1/psy_rd=1.00: 0.00/mixed_ref=1/me_range=32/chroma_me=1/trellis=2/8x8dct=1/cqm=0/deadzone=21, 11/fast_pskip=0/chroma_qp_offset=-2/threads=12/lookahead_threads=1/sliced_threads=0/nr=0/decimate=0/interlaced=0/bluray_compat=0/constrained_intra=0/bframes=10/b_pyramid=2/b_adapt=2/b_bias=0/direct=1/weightb=1/open_gop=0/weightp=2/keyint=250/keyint_min=25/scenecut=40/intra_refresh=0/rc=crf/mbtree=0/crf=19.0/qcomp=0.65/qpmin=0/qpmax=69/qpstep=4/ip_ratio=1.28/pb_ratio=1.20/aq=3: 0.80
    Язык : English
    Default : Да
    Forced : Нет
    Аудио #1
    Идентификатор : 2
    Формат : AC-3
    Формат/Информация : Audio Coding 3
    Коммерческое название : Dolby Digital
    Идентификатор кодека : A_AC3
    Продолжительность : 50 м. 11 с.
    Вид битрейта : Постоянный
    Битрейт : 192 Кбит/сек
    Каналы : 2 канала
    ChannelLayout : L R
    Частота : 48, 0 КГц
    Частота кадров : 31, 250 кадров/сек (1536 SPF)
    Метод сжатия : С потерями
    Размер потока : 68, 9 Мбайт (2%)
    Заголовок : СВ-Дубль
    Язык : Russian
    ServiceKind/String : Complete Main
    Default : Да
    Forced : Нет
    Аудио #2
    Идентификатор : 3
    Формат : AC-3
    Формат/Информация : Audio Coding 3
    Коммерческое название : Dolby Digital
    Идентификатор кодека : A_AC3
    Продолжительность : 50 м. 11 с.
    Вид битрейта : Постоянный
    Битрейт : 448 Кбит/сек
    Каналы : 6 каналов
    ChannelLayout : L R C LFE Ls Rs
    Частота : 48, 0 КГц
    Частота кадров : 31, 250 кадров/сек (1536 SPF)
    Метод сжатия : С потерями
    Размер потока : 161 Мбайт (4%)
    Язык : English
    ServiceKind/String : Complete Main
    Default : Нет
    Forced : Нет


    Канарские острова/Die Kanarischen Inseln/The Canary Islands (2016) BDRip [H.264/1080p] (серии 2 из 2)
    Рейтинг →
     (голосов: 1, оценка 4/5, голосовать можно 1 раз )

    Другие торренты по теме:

  • Орел и решка. Перезагрузка (2017.12.11) WEB-DL [H.264 / 720p-LQ] (сезон 14: Канарские острова)
  • Орел и решка. Перезагрузка (2017.12.11) WEB-DLRip (сезон 14: Канарские острова)
  • Орел и решка. Перезагрузка (2017.12.17) WEB-DL [H.264 / 1080p-LQ] (сезон 14: Канарские острова)
  • Канарские острова / The Canary Islands (2016) SATRip (серии 2 из 2)
  • Канарские острова 4K / The Canary Islands 4K (Die Kanarischen Inseln 4K) (2016) UHD BDRemux [H.265 / 2160p] [4K, SDR, 10-bit] (серии 2 из 2)
  • Канарские острова / Die Kanarischen Inseln / The Canary Islands (2016) BDRip [H.264 / 1080p] (серии 1-2 из 2) [PR]


    • Комментарии (0):

      Информация

      Информация

        Посетители, находящиеся в группе Гости, не могут оставлять комментарии в данной новости.

        ↓ Меню




        ↓ Опрос

        Вы добавили сайт в закладки?
        Да
        Нет


        Популярное

        Счастливые люди: Другая жизнь. Алтай (2017) WEBRip [VP9 / 1080p] (cерии 1-4)

        (скачиваний: 52)
        Сборник выпусков киножурнала "Фитиль" (1960-2004) TVRip (серий 854)

        (скачиваний: 45)
        Михаил Задорнов. Лучшее - сборник лучших эстрадных номеров Михаила Задорнова за 30 лет (1984-2014) WEBRip скачать через торрент бесплатно

        (скачиваний: 38)
        Военная приёмка. От Т-50 к СУ-57 (18.11.2018) WEB-DLRip [H.264 / 1080p-LQ] (серии 1-3 из 3) [PR]

        (скачиваний: 35)
        Битва экстрасенсов (2015.12.26) SATRip (сезон 16, выпуски 1-15 из 15) скачать через торрент бесплатно

        (скачиваний: 31)
        Рыбалка в России (2011-2013) TVRip [H.264] скачать через торрент бесплатно

        (скачиваний: 31)
        Адская кухня с Константином Ивлевым (2017) WEB-DLRip [H.264 / 720p-LQ] (сезон 1, выпуски 1-15 из 15 + Спецвыпуск)

        (скачиваний: 30)
        Нереальная история (2011-2013) SATRip [1-3 сезон: 1-60 выпуск из 60] скачать через торрент бесплатно

        (скачиваний: 29)
        Русские евреи (2016-2017) HDTVRip [H.264 / 1080p-LQ]

        (скачиваний: 26)
        Великая война (2010-2012) WEBRip [H.264 / 720p-LQ] (серии 1-18 из 18)

        (скачиваний: 22)