.
Авторизация | Регистрация
bitok.xyz
» » Война и мир Михаила Калашникова (2019) WEB-DLRip [H.264] торрент скачать бесплатно


    Война и мир Михаила Калашникова (2019) WEB-DLRip [H.264] торрент скачать бесплатно

    Дата: 20-11-2019, 05:00 | .torrent скачали: 7

    Война и мир Михаила Калашникова (2019) WEB-DLRip [H.264]Телекомпания: Единая Медиа Группа
    Жанр: Документальный
    Режиссер: Юлия Бобкова

    Описание

    Когда в 1941 году Михаил Калашников лежал в госпитале после ранения и вынашивал идею создания нового образца автоматического оружия, он вряд ли предполагал, что спустя несколько десятков лет его детище станет одним из символов эпохи, фамилия Калашников прогремит на весь мир, а сама история создания знаменитого автомата обрастет легендами.
    Но главное, чего вообще никто не мог предположить – это то, что АК, который задумывался как простое и эффективное оружие для солдата любого уровня подготовки, заживет своей собственной жизнью!
    О чем мечтал самый знаменитый оружейник? Что заставило его в конце жизни покаяться в создании самого массового оружия убийства? Почему автомат из оружия для защиты превратился в орудие смерти? И смог ли Михаил Калашников обрести мир?

    Релиз от: starflow
    Продолжительность: 00: 44: 02
    Качество видео: WEB-DLRip
    Субтитры: отсутствуют
    Видео: AVC/H.264, 720x576 (16: 9), ~1 800 Kbps
    Аудио: AC3, 2 ch, 192 Kbps
    General
    Unique ID : 236810200894560756458514791671979034179 (0xB227FC5717904F0C8A1B9DF39F0BC643)
    Complete name : D: Voyna_i_mir_Mihaila_Kalshnikova._.mkv
    Format : Matroska
    Format version : Version 2
    File size : 628 MiB
    Duration : 44mn 2s
    Overall bit rate : 1 993 Kbps
    Encoded date : UTC 2019-11-18 14: 24: 34
    Writing application : mkvmerge v7.8.0 (\'River Man\') 32bit built on Apr 3 2015 12: 11: 22
    Writing library : libebml v1.3.1 + libmatroska v1.4.2
    Video
    ID : 1
    Format : AVC
    Format/Info : Advanced Video Codec
    Format profile : High@L4.1
    Format settings, CABAC : Yes
    Format settings, ReFrames : 9 frames
    Codec ID : V_MPEG4/ISO/AVC
    Duration : 44mn 2s
    Bit rate : 1 800 Kbps
    Width : 720 pixels
    Height : 576 pixels
    Display aspect ratio : 16: 9
    Frame rate mode : Constant
    Frame rate : 25.000 fps
    Standard : PAL
    Color space : YUV
    Chroma subsampling : 4: 2: 0
    Bit depth : 8 bits
    Scan type : Progressive
    Bits/(Pixel*Frame) : 0.174
    Stream size : 555 MiB (88%)
    Writing library : x264 core 146 r2538 121396c
    Encoding settings : cabac=1/ref=9/deblock=1: -1: -1/analyse=0x3: 0x113/me=umh/subme=9/psy=1/psy_rd=1.00: 0.20/mixed_ref=1/me_range=30/chroma_me=1/trellis=2/8x8dct=1/cqm=0/deadzone=21, 11/fast_pskip=0/chroma_qp_offset=-3/threads=6/lookahead_threads=1/sliced_threads=0/nr=0/decimate=0/interlaced=0/bluray_compat=0/constrained_intra=0/bframes=10/b_pyramid=2/b_adapt=2/b_bias=0/direct=3/weightb=1/open_gop=0/weightp=2/keyint=250/keyint_min=25/scenecut=40/intra_refresh=0/rc_lookahead=50/rc=2pass/mbtree=1/bitrate=1800/ratetol=1.0/qcomp=0.60/qpmin=0/qpmax=69/qpstep=4/cplxblur=20.0/qblur=0.5/vbv_maxrate=14000/vbv_bufsize=14000/nal_hrd=none/filler=0/ip_ratio=1.40/aq=1: 1.00
    Default : Yes
    Forced : No
    Audio
    ID : 2
    Format : AC-3
    Format/Info : Audio Coding 3
    Mode extension : CM (complete main)
    Format settings, Endianness : Big
    Codec ID : A_AC3
    Duration : 44mn 2s
    Bit rate mode : Constant
    Bit rate : 192 Kbps
    Channel(s) : 2 channels
    Channel positions : Front: L R
    Sampling rate : 48.0 KHz
    Bit depth : 16 bits
    Compression mode : Lossy
    Stream size : 60.5 MiB (10%)
    Default : Yes
    Forced : No

    Скриншоты для ознакомления




    Все одноименные релизы в Клубе
    Время раздачи: с 18: 00 до 23: 30 (до появления первых 3-5 скачавших)

    Война и мир Михаила Калашникова (2019) WEB-DLRip [H.264]
    Рейтинг →
     (голосов: 1, оценка 5/5, голосовать можно 1 раз )

    Другие торренты по теме:

  • Кухня. Война за отель (2019) WEBRip [H.264] (сезон 1, серии 1-4 из 13) (обновляемая)
  • Война викингов / The Viking War (2019) BDRemux [MPEG-2 / 1080p] [Line]
  • 60 минут. Война нервов, война фальшивок (12.10.2016) SATRip
  • Великая война в цифрах (Первая мировая война в цифрах) / The Great War in Numbers (2017) HDTVRip [H.264 / 720p-LQ] (1-2 серия из 6) (Обновляемая)
  • Великая война в цифрах (Первая мировая война в цифрах) / The Great War in Numbers (2017) HDTVRip (1-3 серия из 6) (Обновляемая)
  • Великая война в цифрах (Первая мировая война в цифрах) / The Great War in Numbers (2017) HDTV [H.264 / 1080p-LQ] (1-4 серия из 6) (Обновляемая)
  • Вьетнамская война (Война во Вьетнаме) / The Vietnam War (2017) BDRip] [H.264 / 720p-LQ] (1 серия из 10) [En / En, Ru Sub] (Обновляемая)
  • Вьетнамская война (Война во Вьетнаме) / The Vietnam War (2017) BDRip (1 серия из 10) [EN / EN, RU Sub] (Обновляемая)


    • Комментарии (0):

      Информация

      Информация

        Посетители, находящиеся в группе Гости, не могут оставлять комментарии в данной новости.

        ↓ Меню




        ↓ Опрос

        Вы добавили сайт в закладки?
        Да
        Нет


        Популярное

        Счастливые люди: Другая жизнь. Алтай (2017) WEBRip [VP9 / 1080p] (cерии 1-4)

        (скачиваний: 57)
        Сборник выпусков киножурнала "Фитиль" (1960-2004) TVRip (серий 854)

        (скачиваний: 55)
        Михаил Задорнов. Лучшее - сборник лучших эстрадных номеров Михаила Задорнова за 30 лет (1984-2014) WEBRip скачать через торрент бесплатно

        (скачиваний: 43)
        Адская кухня с Константином Ивлевым (2017) WEB-DLRip [H.264 / 720p-LQ] (сезон 1, выпуски 1-15 из 15 + Спецвыпуск)

        (скачиваний: 37)
        Военная приёмка. От Т-50 к СУ-57 (18.11.2018) WEB-DLRip [H.264 / 1080p-LQ] (серии 1-3 из 3) [PR]

        (скачиваний: 35)
        Битва экстрасенсов (2015.12.26) SATRip (сезон 16, выпуски 1-15 из 15) скачать через торрент бесплатно

        (скачиваний: 32)
        Нереальная история (2011-2013) SATRip [1-3 сезон: 1-60 выпуск из 60] скачать через торрент бесплатно

        (скачиваний: 32)
        Рыбалка в России (2011-2013) TVRip [H.264] скачать через торрент бесплатно

        (скачиваний: 31)
        Русские евреи (2016-2017) HDTVRip [H.264 / 1080p-LQ]

        (скачиваний: 26)
        Великая война (2010-2012) WEBRip [H.264 / 720p-LQ] (серии 1-18 из 18)

        (скачиваний: 22)