.
Авторизация | Регистрация
bitok.xyz
Торрент скачать бесплатно Передачи торрент скачать Джордж Майкл: Свобода / George Michael: Freedom (2017) HDTVRip [H.264 / 720p] торрент скачать бесплатно


    Джордж Майкл: Свобода / George Michael: Freedom (2017) HDTVRip [H.264 / 720p] торрент скачать бесплатно

    Дата: 6-01-2020, 05:00 | .torrent скачали: 5

    Джордж Майкл: Свобода / George Michael: Freedom (2017) HDTVRip [H.264 / 720p]Производство: Великобритания, Coffee TV, Halo Post Production
    Жанр: Документальный, музыка, биография
    Режиссер: Дэвид Остин, Джордж Майкл
    Участники: Эммануэль Альт, Дэвид Остин, Тони Беннетт, Джеллибин Бенитес, Мэри Джей Блайдж, Наоми Кэмпбелл, Джеймс Корден, Синди Кроуфорд, Клив Дэвис, Трэйси Эмин

    Описание

    В декабре прошлого года ушёл Джордж Майкл — один из самых известных поп-певцов. Фильм назван в честь первого сольного хита Джорджа Майкла Freedom, и рассказывает о трудностях и поворотах судьбы каждого серьёзного артиста. Например, песня Эдит Пиаф Non, je ne regrette rien, которая сделала певицу известной, была написана простым солдатом, умолявшим выслушать его и поверить, что это именно её песня. Или история Фрэдди Мэркюри, когда он, превозмогая боль, записывал знаменитую Show must go on. В фильме собраны истории о создании известных композиций Джорджа Майкла, его жизни и творчестве. Певец ушёл в разгар работы над лентой — её доделывал его лучший друг Дэвид Остин. В эпизодах вы встретите: Кейт Мосс, Наоми Кэмпбелл, Синди Кроуфорд, Линду Евангелиста, Стиви Вандера, Элтона Джона, Марка Ронсона, Лиама Галлахера и других.

    Релиз от: рип Zakol
    Продолжительность: 00: 44: 00
    Качество видео: HDTVRip
    Перевод: Одноголосый закадровый, профессиональный (Resonant Arts)
    Субтитры: Английские
    Видео: AVC/H.264, 1280x720, ~2452 Kbps
    Аудио#1: AAC, 2 ch, 139 Kbps | Английский
    Аудио#2: AAC, 2 ch, 157 Kbps | Русский (читает: Марк Рожков)
    Общее
    Уникальный идентификатор : 190697055225965703145456983569339793402 (0x8F76EAB9BC90DB909BEE70F84CB43FFA)
    Полное имя : F: КИНОCh4.George.Michael.Freedom.720p.HDTV.x264.AAC by Kissy.mkv
    Формат : Matroska
    Версия формата : Version 4
    Размер файла : 1, 76 Гбайт
    Продолжительность : 1 ч. 31 м.
    Общий поток : 2752 Кбит/сек
    Название фильма : George Michael: Freedom MVGroup
    Дата кодирования : UTC 2018-03-10 14: 58: 12
    Программа кодирования : mkvmerge v9.1.0 (\'Little Earthquakes\') 32bit
    Библиотека кодирования : libebml v1.3.3 + libmatroska v1.4.4
    Видео
    Идентификатор : 1
    Формат : AVC
    Формат/Информация : Advanced Video Codec
    Профиль формата : High@L3.1
    Настройки формата : CABAC/4 Ref Frames
    Параметр CABAC формата : Да
    Параметр RefFrames формата : 4 кадра
    Идентификатор кодека : V_MPEG4/ISO/AVC
    Продолжительность : 1 ч. 31 м.
    Битрейт : 2452 Кбит/сек
    Ширина : 1280 пикселей
    Высота : 720 пикселей
    Соотношение сторон : 16: 9
    Режим частоты кадров : Постоянный
    Частота кадров : 25, 000 кадров/сек
    Цветовое пространство : YUV
    Субдискретизация насыщенности : 4: 2: 0
    Битовая глубина : 8 бит
    Тип развёртки : Прогрессивная
    Бит/(Пиксели*Кадры) : 0.106
    Размер потока : 1, 57 Гбайт (89%)
    Библиотека кодирования : x264 core 152 r2851 MVGroup
    Настройки программы : cabac=1/ref=3/deblock=1: 0: 0/analyse=0x3: 0x113/me=umh/subme=9/psy=1/psy_rd=1.00: 0.00/mixed_ref=1/me_range=24/chroma_me=1/trellis=1/8x8dct=1/cqm=0/deadzone=21, 11/fast_pskip=0/chroma_qp_offset=-2/threads=3/lookahead_threads=1/sliced_threads=0/nr=0/decimate=1/interlaced=0/bluray_compat=0/constrained_intra=0/bframes=6/b_pyramid=2/b_adapt=2/b_bias=0/direct=1/weightb=1/open_gop=0/weightp=2/keyint=250/keyint_min=25/scenecut=40/intra_refresh=0/rc_lookahead=40/rc=crf/mbtree=1/crf=20.0/qcomp=0.60/qpmin=0/qpmax=69/qpstep=4/ip_ratio=1.40/aq=1: 1.00
    Язык : English
    Default : Да
    Forced : Нет
    Цветовой диапазон : Limited
    Основные цвета : BT.709
    Характеристики трансфера : BT.709
    Коэффициенты матрицы : BT.709
    Аудио #1
    Идентификатор : 2
    Формат : AAC LC
    Формат/Информация : Advanced Audio Codec Low Complexity
    Идентификатор кодека : A_AAC-2
    Продолжительность : 1 ч. 31 м.
    Битрейт : 139 Кбит/сек
    Каналы : 2 канала
    ChannelLayout : L R
    Частота : 48, 0 КГц
    Частота кадров : 46, 875 кадров/сек (1024 SPF)
    Метод сжатия : С потерями
    Задержка видео : 9 мс.
    Размер потока : 91, 0 Мбайт (5%)
    Язык : English
    Default : Нет
    Forced : Нет
    Аудио #2
    Идентификатор : 4
    Формат : AAC LC
    Формат/Информация : Advanced Audio Codec Low Complexity
    Идентификатор кодека : A_AAC-2
    Продолжительность : 1 ч. 31 м.
    Битрейт : 157 Кбит/сек
    Каналы : 2 канала
    ChannelLayout : L R
    Частота : 48, 0 КГц
    Частота кадров : 46, 875 кадров/сек (1024 SPF)
    Метод сжатия : С потерями
    Размер потока : 103 Мбайт (6%)
    Язык : Russian
    Default : Да
    Forced : Да
    Текст
    Идентификатор : 3
    Формат : UTF-8
    Идентификатор кодека : S_TEXT/UTF8
    Идентификатор кодека/Информация : UTF-8 Plain Text
    Продолжительность : 1 ч. 31 м.
    Битрейт : 88 бит/сек
    ElementCount : 1553
    Размер потока : 59, 0 Кбайт (0%)
    Язык : English
    Default : Нет
    Forced : Нет

    Скриншоты для ознакомления



    Все одноименные релизы в Клубе
    Время раздачи: с 18: 00 до 23: 00 (до появления первых 3-5 скачавших)

    Джордж Майкл: Свобода / George Michael: Freedom (2017) HDTVRip [H.264 / 720p] торрент скачать бесплатно
    Рейтинг →
     (голосов: 1, оценка 3/5, голосовать можно 1 раз )

    Другие торренты по теме:

  • Элисон Джордж (сост.) | Эволюция. От Дарвина до современных теорий [сборник] (2020) [FB2]
  • Джордж Мартин | Игра престолов [сборник] (2011) [FB2] скачать через торрент бесплатно
  • Джордж Р. Р. Мартин | Буря мечей (2013) [FB2] скачать через торрент бесплатно
  • Джордж Мартин (сост.) | Древний Марс [антология] (2014) [FB2]
  • Джордж Мартин (сост.) | Туз в трудном положении [антология] (2014) [FB2] скачать через торрент бесплатно
  • Элизабет Джордж | Серия "Инспектор Линли" [18 книг] (2009-2014) [FB2] скачать через торрент бесплатно
  • Джеймс Джордж Фрэзер | Золотая ветвь: Исследование магии и религии (1983) [DJVU] скачать через торрент бесплатно
  • Джордж Мартин и др. | Одноглазые валеты [антология] (2015) [FB2] скачать через торрент бесплатно


    • Комментарии (0):

      Информация

      Информация

        Посетители, находящиеся в группе Гости, не могут оставлять комментарии в данной новости.

        ↓ Меню




        ↓ Опрос

        Вы добавили сайт в закладки?
        Да
        Нет


        Популярное