.
Авторизация | Регистрация
bitok.xyz
Торрент скачать бесплатно Передачи торрент скачать Гигант. Рассказ о "Давиде" Микеланджело / Il Gigante. Indagine sul David di Michelangelo (2007) IPTVRip [H.264] торрент скачать бесплатно


    Гигант. Рассказ о "Давиде" Микеланджело / Il Gigante. Indagine sul David di Michelangelo (2007) IPTVRip [H.264] торрент скачать бесплатно

    Дата: 14-01-2020, 05:00 | .torrent скачали: 0

    Гигант. Рассказ о Давиде Микеланджело / Il Gigante. Indagine sul David di Michelangelo (2007) IPTVRip [H.264]Производство: Италия/Land Comunicazioni
    Жанр: Документальный, Искусство, История
    Режиссер: Nino Criscenti

    Описание

    В первой половине XV в. едва ли не все культурные и финансовые силы Флоренции были брошены на завершение строительства и создание интерьеров собора Санта-Мария-дель-Фьоре. Генеральным спонсором и заказчиком внутреннего убранства грандиозного храма была гильдия торговцев шерстью. По окончании основных работ по строительству и созданию интерьеров храма в гильдии решили, что несравненная красота собора станет еще более неотразима, если украсить его 12-ю огромными скульптурами ветхозаветных пророков. Однако этот скульптурный ансамбль так и остался в планах. Как осталась под открытым небом во дворе собора и огромная глыба каррарского мрамора, прозванная горожанами Гигантом и изначально предназначенная для статуи Давида. С 1464 по 1501 гг. неоднократно предпринимались попытки создания статуи, и каждый раз безуспешно. В мышлении скульпторов еще не произошел ренессансный поворот, и подражание античным образцам еще не стало трендом эпохи. Объединить реализм изображения фигуры Давида с античными традициями (и учтя при этом эскизы и работу предшественников, из-за чего мраморная глыба стала почти неликвидом), удалось только Микеланджело.
    Релиз от: starflow
    Продолжительность: 00: 53: 49
    Качество видео: IPTVRip
    Перевод: Одноголосый профессиональный (SDI Media)
    Субтитры: отсутствуют
    Видео: AVC/H.264, 720x576 (16: 9), ~1400 Kbps
    Аудио: AC3, 2 ch, 128 Kbps
    General
    Unique ID : 179358135310946417106013953323615710782 (0x86EF1ECFAEAD7AEA895CD6BDE594EE3E)
    Complete name : D: Gigant._Rasskaz_o_Davide_Mikelandzhelo._.mkv
    Format : Matroska
    Format version : Version 2
    File size : 589 MiB
    Duration : 53mn 49s
    Overall bit rate : 1 530 Kbps
    Encoded date : UTC 2020-01-11 10: 29: 19
    Writing application : mkvmerge v7.8.0 (\'River Man\') 32bit built on Apr 3 2015 12: 11: 22
    Writing library : libebml v1.3.1 + libmatroska v1.4.2
    Video
    ID : 1
    Format : AVC
    Format/Info : Advanced Video Codec
    Format profile : High@L4.1
    Format settings, CABAC : Yes
    Format settings, ReFrames : 9 frames
    Codec ID : V_MPEG4/ISO/AVC
    Duration : 53mn 49s
    Bit rate : 1 400 Kbps
    Width : 720 pixels
    Height : 576 pixels
    Display aspect ratio : 16: 9
    Frame rate mode : Constant
    Frame rate : 25.000 fps
    Standard : PAL
    Color space : YUV
    Chroma subsampling : 4: 2: 0
    Bit depth : 8 bits
    Scan type : Progressive
    Bits/(Pixel*Frame) : 0.135
    Stream size : 528 MiB (90%)
    Writing library : x264 core 146 r2538 121396c
    Encoding settings : cabac=1/ref=9/deblock=1: -1: -1/analyse=0x3: 0x113/me=umh/subme=9/psy=1/psy_rd=1.00: 0.20/mixed_ref=1/me_range=30/chroma_me=1/trellis=2/8x8dct=1/cqm=0/deadzone=21, 11/fast_pskip=0/chroma_qp_offset=-3/threads=6/lookahead_threads=1/sliced_threads=0/nr=0/decimate=0/interlaced=0/bluray_compat=0/constrained_intra=0/bframes=10/b_pyramid=2/b_adapt=2/b_bias=0/direct=3/weightb=1/open_gop=0/weightp=2/keyint=250/keyint_min=25/scenecut=40/intra_refresh=0/rc_lookahead=50/rc=2pass/mbtree=1/bitrate=1400/ratetol=1.0/qcomp=0.60/qpmin=0/qpmax=69/qpstep=4/cplxblur=20.0/qblur=0.5/vbv_maxrate=14000/vbv_bufsize=14000/nal_hrd=none/filler=0/ip_ratio=1.40/aq=1: 1.00
    Default : Yes
    Forced : No
    Audio
    ID : 2
    Format : AC-3
    Format/Info : Audio Coding 3
    Mode extension : CM (complete main)
    Format settings, Endianness : Big
    Codec ID : A_AC3
    Duration : 53mn 49s
    Bit rate mode : Constant
    Bit rate : 128 Kbps
    Channel(s) : 2 channels
    Channel positions : Front: L R
    Sampling rate : 48.0 KHz
    Bit depth : 16 bits
    Compression mode : Lossy
    Stream size : 49.3 MiB (8%)
    Default : Yes
    Forced : No

    Скриншоты для ознакомления





    Все одноименные релизы в Клубе
    Время раздачи: с 18: 00 до 23: 30 (до появления первых 3-5 скачавших)

    Гигант. Рассказ о "Давиде" Микеланджело / Il Gigante. Indagine sul David di Michelangelo (2007) IPTVRip [H.264] торрент скачать бесплатно
    Рейтинг →
     (голосов: 1, оценка 4/5, голосовать можно 1 раз )

    Другие торренты по теме:

  • VA - Гигант От Зайцев Net (2015) [MP3|320 кб / с]<Pop, Dance> скачать через торрент бесплатно
  • Алекcандр Фин | Половой Гигант (2015) [unpacked] скачать через торрент бесплатно
  • Industry Giant 2 / Промышленный Гигант II (2015) [Ru] (2.3.3.0) Repack / Mod Evengard [HD Remake]
  • Стальной гигант / The Iron Giant (1999) BDRip [H.264 / 1080p]
  • Николай Якубович | Военно-транспортный гигант Ан-22 "Антей" (2013) [PDF]
  • Стальной гигант / The Iron Giant (1999) BDRip
  • Стальной гигант / The Iron Giant (1999) BDRip [H.265 / 1080p-LQ] (Signature Edition)
  • Industry Giant 2 / Промышленный гигант 2 (2002) [Ru / Multi] (2.3.5696) License GOG


    • Комментарии (0):

      Информация

      Информация

        Посетители, находящиеся в группе Гости, не могут оставлять комментарии в данной новости.

        ↓ Меню




        ↓ Опрос

        Вы добавили сайт в закладки?
        Да
        Нет


        Популярное